+ ShareSpark.net »  :::: Dubbed Zone (Dubbed English in Hindi) » English Movies Dubbed in Hindi » Animation Movies
|- Legend of the Guardians 2010 x264 720p Esub BluRay Dual Audio English Hindi Shahzaib Shah


TV and Appliances

Legend of the Guardians 2010 x264 720p Esub BluRay Dual Audio English Hindi Shahzaib Shah

0 Members and 1 Guest are viewing this topic.

January 12, 2019, 03:19:38 PM
  • ***************
  • Conqueror
  • Legend Member
  • *****
  • Topic Author
  • Thank You: 1968
  • Reputation: 566
  • Activity:
    100%
  • Country: pk
  • Posts: 2183
  • Topics: 1461
  • Join Date: Mar 2015
  • =$ Success Never Ends $=
Legend of the Guardians 2010 x264 720p Esub BluRay Dual Audio English Hindi Shahzaib Shah








Format                         : Matroska
Format version                 : Version 4 / Version 2
File size                      : 586 MiB
Duration                       : 1 h 31 min
Overall bit rate               : 899 kb/s
Movie name                     : Legend of the Guardians 2010 GOPISAHI

Video
Format                         : AVC
Format/Info                    : Advanced Video Codec
Codec ID                       : V_MPEG4/ISO/AVC
Duration                       : 1 h 31 min
Bit rate                       : 700 kb/s
Width                          : 1 280 pixels
Height                         : 544 pixels
Display aspect ratio           : 2.35:1
Frame rate mode                : Constant
Frame rate                     : 23.976 FPS
Color space                    : YUV
Chroma subsampling             : 4:2:0
Bit depth                      : 8 bits
Scan type                      : Progressive
Bits/(Pixel*Frame)             : 0.042
Stream size                    : 464 MiB (79%)
Title                          : GOPISAHI
Writing library                : x264 core 112

Audio #1
Format                         : AAC
Duration                       : 1 h 31 min
Bit rate                       : 93.7 kb/s
Channel(s)                     : 6 channels
Channel positions              : Front: L C R, Side: L R, LFE
Sampling rate                  : 44.1 kHz
Frame rate                     : 43.066 FPS (1024 SPF)
Compression mode               : Lossy
Stream size                    : 61.0 MiB (10%)
Title                          : GOPISAHI
Language                       : Hindi

Audio #2
Format                         : AAC
Duration                       : 1 h 31 min
Bit rate                       : 90.2 kb/s
Channel(s)                     : 6 channels
Channel positions              : Front: L C R, Side: L R, LFE
Sampling rate                  : 44.1 kHz
Frame rate                     : 43.066 FPS (1024 SPF)
Compression mode               : Lossy
Stream size                    : 58.8 MiB (10%)
Title                          : GOPISAHI
Language                       : English

Text
ID                             : 4
Language                       : English




 :ss:











 :download:










Share this topic on FacebookShare this topic on GoogleShare this topic on MySpaceShare this topic on TwitterShare this topic on Yahoo




Tags:
 

Related Topics





Back to top