+ ShareSpark.net »  :::: Bollywood Zone » Regional Movies » Tamil Movies
|- Sigai 2019 x264 720p HD Tamil Shahzaib Shah


Mastercard 10% Off

Sigai 2019 x264 720p HD Tamil Shahzaib Shah

0 Members and 1 Guest are viewing this topic.

January 12, 2019, 03:26:40 PM
  • Aur Time Well Come
  • Conqueror
  • Legend Member
  • *****
  • Topic Author
  • Thank You: 2116
  • Reputation: 602
  • Activity:
    82.8%
  • Country: pk
  • Posts: 2760
  • Topics: 1970
  • Join Date: Mar 2015
  • =$ Success Never Ends $=
Sigai 2019 x264 720p HD Tamil Shahzaib Shah







Format                         : Matroska
Format version                 : Version 4 / Version 2
File size                      : 542 MiB
Duration                       : 1 h 35 min
Overall bit rate               : 797 kb/s
Movie name                     : Sigai 2019 GOPISAHI

Video
Format                         : AVC
Codec ID                       : V_MPEG4/ISO/AVC
Duration                       : 1 h 35 min
Bit rate                       : 699 kb/s
Width                          : 1 280 pixels
Height                         : 544 pixels
Display aspect ratio           : 2.35:1
Frame rate mode                : Constant
Frame rate                     : 25.000 FPS
Color space                    : YUV
Chroma subsampling             : 4:2:0
Bit depth                      : 8 bits
Scan type                      : Progressive
Bits/(Pixel*Frame)             : 0.040
Stream size                    : 475 MiB (88%)
Title                          : GOPISAHI
Writing library                : x264 core 155 r2901 7d0ff22

Audio
Format                         : AAC
Duration                       : 1 h 35 min
Bit rate                       : 96.0 kb/s
Channel(s)                     : 2 channels
Channel positions              : Front: L R
Sampling rate                  : 48.0 kHz
Frame rate                     : 46.875 FPS (1024 SPF)
Compression mode               : Lossy
Delay relative to video        : -21 ms
Stream size                    : 65.3 MiB (12%)
Title                          : GOPISAHI
Language                       : Tamil




 :ss:








 :download:













Share this topic on FacebookShare this topic on GoogleShare this topic on MySpaceShare this topic on TwitterShare this topic on Yahoo




Tags:
 

Related Topics





Back to top