+ ShareSpark.net »  :::: Dubbed Zone (Dubbed English in Hindi) » English Movies Dubbed in Hindi
|- Cradle 2 The Grave 2003 x264 720p Esub BluRay Dual Audio English Hindi Shahzaib Shah


100% Recharge Offer

Cradle 2 The Grave 2003 x264 720p Esub BluRay Dual Audio English Hindi Shahzaib Shah

0 Members and 1 Guest are viewing this topic.

January 12, 2019, 03:32:29 PM
  • ***************
  • Conqueror
  • Legend Member
  • *****
  • Topic Author
  • Thank You: 2034
  • Reputation: 583
  • Activity:
    100%
  • Country: pk
  • Posts: 2480
  • Topics: 1727
  • Join Date: Mar 2015
  • =$ Success Never Ends $=
Cradle 2 The Grave 2003 x264 720p Esub BluRay Dual Audio English Hindi Shahzaib Shah








Format                        : Matroska

Format version                 : Version 4 / Version 2

File size                      : 792 MiB

Duration                       : 1 h 41 min

Overall bit rate               : 1 095 kb/s

Movie name                     : Cradle 2 The Grave 2003 GOPISAHI


Video

Format                         : AVC

Format/Info                    : Advanced Video Codec

Codec ID                       : V_MPEG4/ISO/AVC

Duration                       : 1 h 41 min

Bit rate                       : 899 kb/s

Width                          : 1 280 pixels

Height                         : 530 pixels

Display aspect ratio           : 2.40:1

Frame rate mode                : Constant

Frame rate                     : 23.976 (24000/1001) FPS

Color space                    : YUV

Chroma subsampling             : 4:2:0

Bit depth                      : 8 bits

Scan type                      : Progressive

Bits/(Pixel*Frame)             : 0.055

Stream size                    : 651 MiB (82%)

Title                          : GOPISAHI

Writing library                : x264 core 155 r2901 7d0ff22


Audio #1

Format                         : AAC

Duration                       : 1 h 41 min

Bit rate                       : 96.0 kb/s

Channel(s)                     : 2 channels

Channel positions              : Front: L R

Sampling rate                  : 48.0 kHz

Frame rate                     : 46.875 FPS (1024 SPF)

Compression mode               : Lossy

Delay relative to video        : 28 ms

Stream size                    : 69.8 MiB (9%)

Title                          : GOPISAHI

Language                       : Hindi


Audio #2

Format                         : AAC

Duration                       : 1 h 41 min

Bit rate                       : 96.0 kb/s

Channel(s)                     : 2 channels

Channel positions              : Front: L R

Sampling rate                  : 48.0 kHz

Frame rate                     : 46.875 FPS (1024 SPF)

Compression mode               : Lossy

Delay relative to video        : -21 ms

Stream size                    : 69.7 MiB (9%)

Title                          : GOPISAHI

Language                       : English

Default                        : No

Forced                         : No


Text

Language                       : English





 :ss:









 :download:













Share this topic on FacebookShare this topic on GoogleShare this topic on MySpaceShare this topic on TwitterShare this topic on Yahoo




Tags:
 

Related Topics





Back to top