+ ShareSpark.net »  :::: Dubbed Zone (Dubbed English in Hindi) » English Movies Dubbed in Hindi
|- Unbreakable 2000 x264 720p Esub BluRay Dual Audio English Hindi Shahzaib Shah


Amazon Pantry Offer

Unbreakable 2000 x264 720p Esub BluRay Dual Audio English Hindi Shahzaib Shah

0 Members and 1 Guest are viewing this topic.

January 12, 2019, 03:36:36 PM
  • Aur Time Well Come
  • Conqueror
  • Legend Member
  • *****
  • Topic Author
  • Thank You: 2116
  • Reputation: 602
  • Activity:
    82.8%
  • Country: pk
  • Posts: 2760
  • Topics: 1970
  • Join Date: Mar 2015
  • =$ Success Never Ends $=
Unbreakable 2000 x264 720p Esub BluRay Dual Audio English Hindi Shahzaib Shah








Format                         : Matroska

Format version                 : Version 4 / Version 2

File size                      : 791 MiB

Duration                       : 1 h 46 min

Overall bit rate               : 1 036 kb/s

Movie name                     : Unbreakable 2000 GOPI SAHI


Video

Format                         : AVC

Format/Info                    : Advanced Video Codec

Codec ID                       : V_MPEG4/ISO/AVC

Duration                       : 1 h 46 min

Bit rate                       : 884 kb/s

Width                          : 1 280 pixels

Height                         : 544 pixels

Display aspect ratio           : 2.35:1

Frame rate mode                : Constant

Frame rate                     : 23.976 (24000/1001) FPS

Color space                    : YUV

Chroma subsampling             : 4:2:0

Bit depth                      : 8 bits

Scan type                      : Progressive

Bits/(Pixel*Frame)             : 0.053

Stream size                    : 674 MiB (85%)

Title                          : GOPI SAHI

Writing library                : x264 core 125 r2200 999b753


Audio #1

Format                         : AAC

Duration                       : 1 h 46 min

Bit rate                       : 96.0 kb/s

Channel(s)                     : 2 channels

Channel positions              : Front: L R

Sampling rate                  : 48.0 kHz

Frame rate                     : 46.875 FPS (1024 SPF)

Compression mode               : Lossy

Delay relative to video        : -83 ms

Stream size                    : 73.0 MiB (9%)

Title                          : GOPI SAHI

Language                       : English


Audio #2

Format                         : AAC

Duration                       : 1 h 43 min

Bit rate                       : 56.5 kb/s

Channel(s)                     : 2 channels

Channel positions              : Front: L R

Sampling rate                  : 44.1 kHz

Frame rate                     : 43.066 FPS (1024 SPF)

Compression mode               : Lossy

Delay relative to video        : -83 ms

Stream size                    : 41.8 MiB (5%)

Title                          : GOPI SAHI

Language                       : Hindi


Text

Language                       : English




 :ss:










 :download:













Share this topic on FacebookShare this topic on GoogleShare this topic on MySpaceShare this topic on TwitterShare this topic on Yahoo




Tags:
 

Related Topics





Back to top