+ ShareSpark.net »  :::: Bollywood Zone » Bollywood Movies (Original Rips)
|- Yeh_Teraa Ghar Yeh Meraa Ghar (2001) DVDRip x264_-_AC_3_-5.1


Mastercard 10% Off

Yeh_Teraa Ghar Yeh Meraa Ghar (2001) DVDRip x264_-_AC_3_-5.1

0 Members and 1 Guest are viewing this topic.

January 12, 2019, 05:21:18 PM
  • Semi Newbie
  • **
  • Topic Author
  • Thank You: 4
  • Reputation: 1
  • Activity:
    2.4%
  • Country: in
  • Posts: 12
  • Topics: 11
  • Join Date: Dec 2018
  • ShareSpark Member
Yeh_Teraa Ghar Yeh Meraa Ghar (2001) DVDRip x264_-_AC_3_-5.1[/size][/color]
[img]
MOVIE INFO Format : Matroska
Format version : Version 2
File size : 2.21 GiB
Duration : 2 h 39 min
Overall bit rate mode : Variable
Overall bit rate : 1 982 kb/s


Video
ID : 1
Format : AVC
Format/Info : Advanced Video Codec
Format profile : [email protected]
Format settings : CABAC / 3 Ref Frames
Format settings, CABAC : Yes
Format settings, RefFrames : 3 frames
Codec ID : V_MPEG4/ISO/AVC
Duration : 2 h 39 min
Bit rate mode : Variable
Bit rate : 1 543 kb/s
Maximum bit rate : 40.0 Mb/s
Width : 720 pixels
Height : 304 pixels
Display aspect ratio : 2.35:1
Frame rate mode : Constant
Frame rate : 23.976 (24000/1001) FPS
Color space : YUV
Chroma subsampling : 4:2:0
Bit depth : 8 bits
Scan type : Progressive
Bits/(Pixel*Frame) : 0.294
Stream size : 1.66 GiB (75%)
Writing library : x264 core 98 r1649 c54c47d
Encoding settings : cabac=1 / ref=4 / deblock=1:-2:-2 / analyse=0x3:0x113 / me=hex / subme=7 / psy=1 / psy_rd=1.00:0.00 / mixed_ref=1 / me_range=16 / chroma_me=1 / trellis=1 / 8x8dct=1 / cqm=0 / deadzone=21,11 / fast_pskip=1 / chroma_qp_offset=-2 / threads=3 / sliced_threads=0 / slices=4 / nr=0 / decimate=1 / interlaced=0 / constrained_intra=0 / bframes=3 / b_pyramid=1 / b_adapt=1 / b_bias=4 / direct=1 / weightb=1 / weightp=0 / keyint=24 / keyint_min=2 / scenecut=40 / intra_refresh=0 / rc_lookahead=24 / rc=abr / mbtree=1 / bitrate=1543 / ratetol=1.0 / qcomp=0.60 / qpmin=10 / qpmax=51 / qpstep=4 / vbv_maxrate=40000 / vbv_bufsize=30000 / ip_ratio=1.40 / aq=1:1.00 / nal_hrd=vbr
Language : English
Default : No
Forced : No
Color range : Limited
Color primaries : BT.709
Transfer characteristics : BT.709
Matrix coefficients : BT.709

Audio
ID : 2
Format : AC-3
Format/Info : Audio Coding 3
Codec ID : A_AC3
Duration : 2 h 39 min
Bit rate mode : Constant
Bit rate : 448 kb/s
Channel(s) : 6 channels
Channel positions : Front: L C R, Side: L R, LFE
Sampling rate : 48.0 kHz
Frame rate : 31.250 FPS (1536 SPF)
Bit depth : 16 bits
Compression mode : Lossy
Delay relative to video : 9 s 843 ms
Stream size : 511 MiB (23%)
Service kind : Complete Main
Default : Yes
Forced : No
:info:
After the death of his dad, Dayashankar Pandey (Sunil Shetty) arranges the marriage of his two sisters. In debt, he goes to the city to ask the tenants to leave his house, as he intends to sell it and repay his debts. A woman (Suhasini Mulay), her two daughters, Jyoti, Saraswati (Mahima Chaudhry), and one son, Chotu (Master Aditi) are living there. When Dayashankar asks them to vacate, they refuse. What results is Dayashankar's hilarious attempts to force them to vacate - from seeking legal advice; filing police reports; asking goons to remove them - moving in himself. Will Dayashankar succeed in his attempts to evict his tenants?
Rating:   NR
Genre:   Art House & International, Comedy, Drama
Directed By:   Priyadarshan
Written By:   
In Theaters:   Oct 12, 2001  Wide
On Disc/Streaming:   Dec 25, 2001
Runtime:   160 minutes

 :download:
[/size]

Share this topic on FacebookShare this topic on GoogleShare this topic on MySpaceShare this topic on TwitterShare this topic on Yahoo



Thanks given by:


Tags:
 

Related Topics





Back to top