+ ShareSpark.net »  :::: Bollywood Zone » Bollywood Movies (Original Rips)
|- Hera Pheri 2000 Hindi 720p


One Plus 6

Hera Pheri 2000 Hindi 720p

0 Members and 1 Guest are viewing this topic.

January 12, 2019, 07:12:39 PM
  • Semi Newbie
  • **
  • Topic Author
  • Thank You: 4
  • Reputation: 1
  • Activity:
    2.4%
  • Country: in
  • Posts: 12
  • Topics: 11
  • Join Date: Dec 2018
  • ShareSpark Member
Hera Pheri 2000 Hindi 720p
:
info
:Format : Matroska
Format version : Version 4 / Version 2
File size : 3.00 GiB
Duration : 2 h 31 min
Overall bit rate : 2 836 kb/s
Movie name : [www.Kiks.Pk] - Hera Pheri (2000) Hindi 720p DVDRip x264 AC3 5.1
Encoded date : UTC 2015-06-11 16:56:40
Writing application : mkvmerge v7.4.0 ('Circles') 64bit built on Dec 12 2014 12:19:56
Writing library : libebml v1.3.0 + libmatroska v1.4.1

Video
ID : 1
Format : AVC
Format/Info : Advanced Video Codec
Format profile : [email protected]
Format settings : CABAC / 11 Ref Frames
Format settings, CABAC : Yes
Format settings, RefFrames : 11 frames
Codec ID : V_MPEG4/ISO/AVC
Duration : 2 h 31 min
Bit rate : 2 387 kb/s
Width : 1 280 pixels
Height : 576 pixels
Display aspect ratio : 2.222
Frame rate mode : Constant
Frame rate : 23.976 (24000/1001) FPS
Color space : YUV
Chroma subsampling : 4:2:0
Bit depth : 8 bits
Scan type : Progressive
Bits/(Pixel*Frame) : 0.135
Stream size : 2.53 GiB (84%)
Title : [www.Kiks.Pk] - Hera Pheri (2000) Hindi 720p DVDRip x264 AC3 5.1
Writing library : x264 core 138 r2358 9e941d1
Encoding settings : cabac=1 / ref=11 / deblock=1:-1:-1 / analyse=0x3:0x113 / me=umh / subme=10 / psy=1 / psy_rd=1.00:0.05 / mixed_ref=1 / me_range=18 / chroma_me=1 / trellis=2 / 8x8dct=1 / cqm=0 / deadzone=21,11 / fast_pskip=0 / chroma_qp_offset=-3 / threads=6 / lookahead_threads=1 / sliced_threads=0 / nr=0 / decimate=1 / interlaced=0 / bluray_compat=0 / constrained_intra=0 / bframes=8 / b_pyramid=2 / b_adapt=2 / b_bias=0 / direct=1 / weightb=1 / open_gop=0 / weightp=2 / keyint=240 / keyint_min=23 / scenecut=40 / intra_refresh=0 / rc_lookahead=40 / rc=2pass / mbtree=1 / bitrate=2387 / ratetol=1.0 / qcomp=0.60 / qpmin=0 / qpmax=69 / qpstep=4 / cplxblur=20.0 / qblur=0.5 / vbv_maxrate=62500 / vbv_bufsize=78125 / nal_hrd=none / ip_ratio=1.40 / aq=1:1.00
Language : English
Default : Yes
Forced : No
Color range : Limited
Color primaries : Generic film
Transfer characteristics : BT.709
Matrix coefficients : BT.709

Audio
ID : 2
Format : AC-3
Format/Info : Audio Coding 3
Codec ID : A_AC3
Duration : 2 h 31 min
Bit rate mode : Constant
Bit rate : 448 kb/s
Channel(s) : 6 channels
Channel positions : Front: L C R, Side: L R, LFE
Sampling rate : 48.0 kHz
Frame rate : 31.250 FPS (1536 SPF)
Bit depth : 16 bits
Compression mode : Lossy
Stream size : 484 MiB (16%)
Title :

Service kind : Complete Main
Default : Yes
Forced : No
[/size][/color]
:lang:
[/size][/color]

Text
ID : 3
Format : UTF-8
Codec ID : S_TEXT/UTF8
Codec ID/Info : UTF-8 Plain Text
Duration : 1 min 29 s
Bit rate : 19 b/s
Count of elements : 7
Stream size : 216 Bytes (0%)
Default : Yes
Forced : No
[/size][/color]
:ss:
[/size][/color][/size][/color]
:download:
v

Share this topic on FacebookShare this topic on GoogleShare this topic on MySpaceShare this topic on TwitterShare this topic on Yahoo



Thanks given by:


Tags:
 

Related Topics

  Subject / Started by Replies Last post
2 Replies
1611 Views
Last post August 25, 2013, 02:19:02 AM
by sαиjαý2423
0 Replies
702 Views
Last post August 21, 2017, 11:09:20 AM
by RoBi007
0 Replies
569 Views
Last post August 21, 2017, 11:09:59 AM
by RoBi007
1 Replies
927 Views
Last post February 16, 2018, 09:32:14 PM
by UnikAaYush
0 Replies
447 Views
Last post June 28, 2018, 07:31:26 PM
by Additional




Back to top