+ ShareSpark.net »  :::: Bollywood Zone » Indian PC Videos
|- Laaga Chunari Mein Daag (2007) Hindi 1080p Untouched WebHD AVC DDP 5.1 {Music Video} ~ Special26


Mastercard 10% Off

Laaga Chunari Mein Daag (2007) Hindi 1080p Untouched WebHD AVC DDP 5.1 {Music Video} ~ Special26

0 Members and 1 Guest are viewing this topic.

January 12, 2019, 08:38:00 PM
  • Conqueror
  • Legend Member
  • *****
  • Topic Author
  • Thank You: 5196
  • Reputation: 1085
  • Activity:
    100%
  • Country: np
  • Posts: 1821
  • Topics: 1553
  • Join Date: Jul 2016
  • Love Forever !!
Laaga Chunari Mein Daag (2007) Hindi 1080p Untouched WebHD AVC DDP 5.1 {Music Video} ~ Special26




 :info:
Format                         : Matroska
Format version                 : Version 4
File size                      : 1.68 GB
Overall bit rate               : 9 916 kb/s


Video
ID                             : 1
Format                         : AVC
Format/Info                    : Advanced Video Codec
Format profile                 : [email protected]
Format settings                : CABAC / 4 Ref Frames
Format settings, CABAC         : Yes
Format settings, ReFrames      : 4 frames
Codec ID                       : V_MPEG4/ISO/AVC
Bit rate                       : 9 347 kb/s
Width                          : 1 920 pixels
Height                         : 1 080 pixels
Display aspect ratio           : 16:9
Frame rate mode                : Constant
Frame rate                     : 23.976 (24000/1001) FPS
Color space                    : YUV
Chroma subsampling             : 4:2:0
Bit depth                      : 8 bits
Scan type                      : Progressive
Bits/(Pixel*Frame)             : 0.188
Stream size                    : 359 MiB (94%)
Default                        : Yes
Forced                         : No
Color range                    : Limited
Color primaries                : BT.709
Transfer characteristics       : BT.709
Matrix coefficients            : BT.709


Audio
ID                             : 2
Format                         : E-AC-3
Format/Info                    : Enhanced AC-3
Commercial name                : Dolby Digital Plus
Codec ID                       : A_EAC3
Bit rate mode                  : Constant
Bit rate                       : 640 kb/s
Channel(s)                     : 6 channels
Channel layout                 : L R C LFE Ls Rs
Sampling rate                  : 48.0 kHz
Frame rate                     : 31.250 FPS (1536 SPF)
Compression mode               : Lossy
Delay relative to video        : 22 ms
Stream size                    : 24.6 MiB (6%)
Title                          : Hindi
Language                       : Hindi
Service kind                   : Complete Main
Default                        : No
Forced                         : No


Text
ID                             : 3
Format                         : UTF-8
Codec ID                       : S_TEXT/UTF8
Codec ID/Info                  : UTF-8 Plain Text
Duration                       : 5 min 20 s
Bit rate                       : 52 b/s
Count of elements              : 85
Stream size                    : 2.06 KiB (0%)
Default                        : Yes
Forced                         : No



 :ss:

















 :download:

Share this topic on FacebookShare this topic on GoogleShare this topic on MySpaceShare this topic on TwitterShare this topic on Yahoo




January 13, 2019, 11:46:33 AM
Reply #1
  • Semi Newbie
  • **
  • Thank You: 0
  • Reputation: 0
  • Activity:
    1.6%
  • Country: pk
  • Posts: 9
  • Topics: 0
  • Join Date: Dec 2016
  • ShareSpark Member

Tags:
 

Related Topics

  Subject / Started by Replies Last post
3 Replies
781 Views
Last post January 24, 2014, 03:21:23 PM
by maniksinghal18
0 Replies
1124 Views
Last post June 21, 2017, 01:33:08 PM
by Nightfire
1 Replies
584 Views
Last post December 14, 2018, 07:00:47 AM
by Rusty
1 Replies
479 Views
Last post January 07, 2019, 11:55:55 PM
by MayurSuccess
0 Replies
197 Views
Last post January 12, 2019, 09:17:14 AM
by Special26




Back to top