+ ShareSpark.net »  :::: Bollywood Zone » Indian TV Shows
|- Rubaru Roshni (2019) Hindi 720p WEB-DL x264 AAC 2.0 - Sun George


10% SBI and 10% Discount

Rubaru Roshni (2019) Hindi 720p WEB-DL x264 AAC 2.0 - Sun George

0 Members and 1 Guest are viewing this topic.

January 27, 2019, 07:48:50 PM
  • Conqueror
  • Legend Member
  • *****
  • Topic Author
  • Thank You: 7037
  • Reputation: 1441
  • Activity:
    100%
  • Country: np
  • Posts: 2876
  • Topics: 2253
  • Join Date: Jul 2016
  • *Love Forever*
Rubaru Roshni (2019) Hindi 720p WEB-DL x264 AAC 2.0 - Sun George






Source : Telly (Thanks) !!
Format                                   : Matroska
Format version                           : Version 4 / Version 2
File size                                : 1.41 GiB
Duration                                 : 1 h 50 min
Overall bit rate                         : 1 821 kb/s


Video
ID                                       : 1
Format                                   : AVC
Format/Info                              : Advanced Video Codec
Format profile                           : [email protected]
Format settings                          : CABAC / 4 Ref Frames
Format settings, CABAC                   : Yes
Format settings, RefFrames               : 4 frames
Codec ID                                 : V_MPEG4/ISO/AVC
Duration                                 : 1 h 50 min
Bit rate                                 : 1 500 kb/s
Width                                    : 1 280 pixels
Height                                   : 720 pixels
Display aspect ratio                     : 16:9
Frame rate mode                          : Constant
Frame rate                               : 25.000 FPS
Color space                              : YUV
Chroma subsampling                       : 4:2:0
Bit depth                                : 8 bits
Scan type                                : Progressive
Bits/(Pixel*Frame)                       : 0.065
Stream size                              : 1.15 GiB (82%)


Audio
ID                                       : 2
Format                                   : AAC
Format/Info                              : Advanced Audio Codec
Format profile                           : LC
Codec ID                                 : A_AAC-2
Duration                                 : 1 h 50 min
Bit rate                                 : 333 kb/s
Channel(s)                               : 2 channels
Channel positions                        : Front: L R
Sampling rate                            : 48.0 kHz
Frame rate                               : 46.875 FPS (1024 SPF)
Compression mode                         : Lossy
Stream size                              : 264 MiB (18%)
Writing library                          : Lavc57.42.100 aac
Language                                 : Hindi
Default                                  : Yes
Forced                                   : No











 :download:

Share this topic on FacebookShare this topic on GoogleShare this topic on MySpaceShare this topic on TwitterShare this topic on Yahoo




Tags:
 

Related Topics





Back to top