+ ShareSpark.net »  :::: Bollywood Zone » Bollywood Movies (Original Rips)
|- Andhadhun 2018 x264 720p Esub BluRay Hindi @ GOPISAHI


Andhadhun 2018 x264 720p Esub BluRay Hindi @ GOPISAHI

0 Members and 1 Guest are viewing this topic.

January 28, 2019, 05:58:30 PM
  • Junior Moderator
  • Legend Member
  • ***
  • Topic Author
  • Thank You: 7245
  • Reputation: 1488
  • Activity:
    94.6%
  • Country: np
  • Posts: 3047
  • Topics: 2374
  • Join Date: Jul 2016
  • *Love Forever*
Andhadhun 2018 x264 720p Esub BluRay Hindi @ GOPISAHI




 :info:
Format                         : Matroska
Format version                 : Version 4 / Version 2
File size                      : 807 MiB
Duration                       : 2 h 19 min
Overall bit rate               : 808 kb/s

Video
Format                         : AVC
Format/Info                    : Advanced Video Codec
Format profile                 : [email protected]
Codec ID                       : V_MPEG4/ISO/AVC
Duration                       : 2 h 19 min
Bit rate                       : 699 kb/s
Width                          : 1 280 pixels
Height                         : 528 pixels
Display aspect ratio           : 2.40:1
Frame rate mode                : Constant
Frame rate                     : 24.000 FPS
Color space                    : YUV
Chroma subsampling             : 4:2:0
Bit depth                      : 8 bits
Scan type                      : Progressive
Bits/(Pixel*Frame)             : 0.043
Stream size                    : 698 MiB (86%)
Title                          : GOPISAHI

Audio
Format                         : AAC
Duration                       : 2 h 19 min
Bit rate                       : 96.0 kb/s
Channel(s)                     : 2 channels
Channel positions              : Front: L R
Sampling rate                  : 48.0 kHz
Frame rate                     : 46.875 FPS (1024 SPF)
Compression mode               : Lossy
Delay relative to video        : -21 ms
Stream size                    : 94.7 MiB (12%)
Title                          : GOPISAHI
Language                       : Hindi

Text
ID                             : 3
Format                         : PGS
Muxing mode                    : zlib
Codec ID                       : S_HDMV/PGS
Codec ID/Info                  : Picture based subtitle format used on BDs/HD-DVDs
Duration                       : 2 h 6 min
Bit rate                       : 19.9 kb/s
Count of elements              : 2349
Stream size                    : 18.0 MiB (2%)
Title                          : GOPISAHI
Language                       : English
Default                        : Yes
Forced                         : No

Menu

00:00:00.000                   : en:Chapter 1
00:04:27.542                   : en:Chapter 2
00:13:24.417                   : en:Chapter 3
00:19:27.625                   : en:Chapter 4
00:23:45.250                   : en:Chapter 5
00:25:25.750                   : en:Chapter 6
00:43:52.250                   : en:Chapter 7
00:51:01.750                   : en:Chapter 8
01:00:57.167                   : en:Chapter 9
01:04:47.792                   : en:Chapter 10
01:19:57.792                   : en:Chapter 11
01:32:09.250                   : en:Chapter 12
01:44:24.792                   : en:Chapter 13
01:45:57.000                   : en:Chapter 14
02:00:59.167                   : en:Chapter 15
02:03:53.292                   : en:Chapter 16



 :ss:


 :download:

Share this topic on FacebookShare this topic on GoogleShare this topic on MySpaceShare this topic on TwitterShare this topic on Yahoo




Tags:
 

Related Topics

  Subject / Started by Replies Last post
0 Replies
481 Views
Last post December 16, 2018, 05:33:28 PM
by shahzaibjaan
0 Replies
331 Views
Last post December 17, 2018, 11:55:10 AM
by shahzaibjaan
1 Replies
304 Views
Last post January 24, 2019, 08:21:13 PM
by PRITTS
0 Replies
300 Views
Last post February 06, 2019, 09:48:03 AM
by Special26
0 Replies
326 Views
Last post February 12, 2019, 01:01:17 PM
by shahzaibjaan




Back to top