+ ShareSpark.net »  :::: Bollywood Zone » Bollywood Movies (Original Rips)
|- Kedarnath (2018) Hindi 720p Untouched WEBHD AVC AAC ~ Ranvijay


Mastercard 10% Off
  • Kedarnath (2018) Hindi 720p Untouched WEBHD AVC AAC ~ Ranvijay 5 1
Currently:  

Kedarnath (2018) Hindi 720p Untouched WEBHD AVC AAC ~ Ranvijay

0 Members and 1 Guest are viewing this topic.

February 14, 2019, 01:12:10 AM
  • Global Moderator
  • Legend Member
  • *****
  • Topic Author
  • Thank You: 12422
  • Reputation: 2551
  • Activity:
    67.2%
  • Country: in
  • Posts: 5748
  • Topics: 4696
  • Join Date: Jan 2014
  • ıllıllı ѕмoĸιng ιѕ good ғor нealтн ıllıllı :)


Kedarnath (2018) Hindi 720p Untouched WEBHD AVC AAC ~ Ranvijay

Format                                   : Matroska
Format version                           : Version 4 / Version 2
File size                                : 1.50 GiB
Duration                                 : 1 h 53 min
Overall bit rate                         : 1 886 kb/s
Encoded date                             : UTC 2019-02-13 19:17:33

Video
ID                                       : 1
Format                                   : AVC
Format/Info                              : Advanced Video Codec
Format profile                           : [email protected]
Format settings                          : CABAC / 4 Ref Frames
Format settings, CABAC                   : Yes
Format settings, RefFrames               : 4 frames
Format settings, GOP                     : M=4, N=50
Codec ID                                 : V_MPEG4/ISO/AVC
Duration                                 : 1 h 53 min
Bit rate                                 : 1 800 kb/s
Width                                    : 1 280 pixels
Height                                   : 720 pixels
Display aspect ratio                     : 16:9
Frame rate mode                          : Constant
Frame rate                               : 25.000 FPS
Color space                              : YUV
Chroma subsampling                       : 4:2:0
Bit depth                                : 8 bits
Scan type                                : Progressive
Bits/(Pixel*Frame)                       : 0.078
Stream size                              : 1.42 GiB (95%)
Title                                    : ~Ranvijay~

Audio
ID                                       : 2
Format                                   : AAC
Format/Info                              : Advanced Audio Codec
Format profile                           : LC
Codec ID                                 : A_AAC-2
Duration                                 : 1 h 53 min
Bit rate                                 : 96.0 kb/s
Channel(s)                               : 2 channels
Channel positions                        : Front: L R
Sampling rate                            : 48.0 kHz
Frame rate                               : 46.875 FPS (1024 SPF)
Compression mode                         : Lossy
Stream size                              : 78.7 MiB (5%)
Title                                    : ~Ranvijay~
Language                                 : Hindi
Default                                  : Yes
Forced                                   : Yes
Comment                                  : Hindi




:download:

Quote











File Leeched & Uploaded From




Don't walk as you are king, walk as you don't care who the king is....!!
Never argue with an idiot. They drag you down to their level and then beat you with experience?

Share this topic on FacebookShare this topic on GoogleShare this topic on MySpaceShare this topic on TwitterShare this topic on Yahoo

« Last Edit: February 14, 2019, 01:44:09 AM by Rάήνίјάч1234 »



Don't walk as you are king, walk as you don't care who the king is....!!

Thanks given by:


14 hours ago
Reply #1
  • Semi Newbie
  • **
  • Thank You: 0
  • Reputation: 0
  • Activity:
    1.8%
  • Country: in
  • Posts: 18
  • Topics: 0
  • Join Date: Oct 2014
  • ShareSpark Member

Tags:
 

Related Topics





Back to top