+ ShareSpark.net »  :::: Dubbed Zone (Dubbed English in Hindi) » English Movies Dubbed in Hindi
|- Knocked Up 2007 x264 720p Amazon 5.1 Dual Audio English Hindi GOPISAHI


Redmi 6A

Knocked Up 2007 x264 720p Amazon 5.1 Dual Audio English Hindi GOPISAHI

0 Members and 1 Guest are viewing this topic.

February 14, 2019, 04:30:26 PM
  • ***************
  • Conqueror
  • Legend Member
  • *****
  • Topic Author
  • Thank You: 2066
  • Reputation: 588
  • Activity:
    100%
  • Country: pk
  • Posts: 2654
  • Topics: 1883
  • Join Date: Mar 2015
  • =$ Success Never Ends $=
Knocked Up 2007 x264 720p Amazon 5.1 Dual Audio English Hindi GOPISAHI










Format : Matroska
Format version : Version 4 / Version 2
File size : 1.16 GiB
Duration : 2 h 9 min
Overall bit rate : 1 285 kb/s
Movie name : Knocked Up 2007 GOPISAHI

Video
Format : AVC
Format/Info : Advanced Video Codec
Codec ID : V_MPEG4/ISO/AVC
Duration : 2 h 8 min
Bit rate : 899 kb/s
Width : 1 280 pixels
Height : 688 pixels
Display aspect ratio : 1.85:1
Frame rate mode : Constant
Frame rate : 23.976 (24000/1001) FPS
Color space : YUV
Chroma subsampling : 4:2:0
Bit depth : 8 bits
Scan type : Progressive
Bits/(Pixel*Frame) : 0.043
Stream size : 829 MiB (70%)
Title : GOPISAHI
Writing library : x264 core 157 r2935 545de2f

Audio #1
Format : AAC
Duration : 2 h 9 min
Bit rate : 192 kb/s
Channel(s) : 6 channels
Channel positions : Front: L C R, Side: C, Back: L R
Sampling rate : 48.0 kHz
Frame rate : 46.875 FPS (1024 SPF)
Compression mode : Lossy
Delay relative to video : -21 ms
Stream size : 177 MiB (15%)
Title : GOPISAHI
Language : Hindi

Audio #2
Format : AAC
Duration : 2 h 8 min
Bit rate : 192 kb/s
Channel(s) : 6 channels
Channel positions : Front: L C R, Side: C, Back: L R
Sampling rate : 48.0 kHz
Frame rate : 46.875 FPS (1024 SPF)
Compression mode : Lossy
Delay relative to video : -21 ms
Stream size : 177 MiB (15%)
Title : GOPISAHI
Language : English





 :ss:










 :download:











Share this topic on FacebookShare this topic on GoogleShare this topic on MySpaceShare this topic on TwitterShare this topic on Yahoo




Tags:
 

Related Topics





Back to top