+ ShareSpark.net »  :::: Bollywood Zone » Bollywood Movies (Original Rips)
|- Kedarnath 2018 x264 720p HD Hindi - GOPISAHI


Amazon Pantry Offer

Kedarnath 2018 x264 720p HD Hindi - GOPISAHI

0 Members and 1 Guest are viewing this topic.

February 14, 2019, 04:39:12 PM
  • Conqueror
  • Legend Member
  • *****
  • Topic Author
  • Thank You: 5708
  • Reputation: 1206
  • Activity:
    100%
  • Country: np
  • Posts: 2199
  • Topics: 1781
  • Join Date: Jul 2016
  • Love Forever !!
Kedarnath 2018 x264 720p HD Hindi - GOPISAHI



 :info:
Format                         : Matroska
Format version                 : Version 4 / Version 2
File size                      : 649 MiB
Duration                       : 1 h 53 min
Overall bit rate               : 797 kb/s

Video
Format                         : AVC
Format/Info                    : Advanced Video Codec
Codec ID                       : V_MPEG4/ISO/AVC
Duration                       : 1 h 53 min
Bit rate                       : 699 kb/s
Width                          : 1 280 pixels
Height                         : 544 pixels
Display aspect ratio           : 2.35:1
Frame rate mode                : Constant
Frame rate                     : 25.000 FPS
Color space                    : YUV
Chroma subsampling             : 4:2:0
Bit depth                      : 8 bits
Scan type                      : Progressive
Bits/(Pixel*Frame)             : 0.040
Stream size                    : 569 MiB (88%)
Title                          : GOPISAHI
Writing library                : x264 core 157 r2935 545de2f

Audio
Format                         : AAC
Duration                       : 1 h 53 min
Bit rate                       : 96.0 kb/s
Channel(s)                     : 2 channels
Channel positions              : Front: L R
Sampling rate                  : 48.0 kHz
Frame rate                     : 46.875 FPS (1024 SPF)
Compression mode               : Lossy
Delay relative to video        : -21 ms
Stream size                    : 78.1 MiB (12%)
Title                          : GOPISAHI
Language                       : Hindi


 :ss:




 :download:



Share this topic on FacebookShare this topic on GoogleShare this topic on MySpaceShare this topic on TwitterShare this topic on Yahoo

« Last Edit: February 14, 2019, 04:44:04 PM by Special26 »



Tags:
 

Related Topics

  Subject / Started by Replies Last post
3 Replies
312 Views
Last post February 15, 2019, 10:17:10 AM
by Pankaj Kumar Gupta
0 Replies
520 Views
Last post February 14, 2019, 03:43:10 PM
by Rάήνίјάч1234
0 Replies
129 Views
Last post February 14, 2019, 04:12:02 PM
by shahzaibjaan
0 Replies
163 Views
Last post February 14, 2019, 07:41:39 PM
by Special26
0 Replies
71 Views
Last post February 17, 2019, 01:27:04 PM
by shahzaibjaan




Back to top