+ ShareSpark.net »  :::: Dubbed Zone (Dubbed English in Hindi) » English Movies Dubbed in Hindi » TeamSSX Dubbed Releases
|- Hannibal 2001 1080p BluRay x264 Eng-Hindi AC3 DD 5.1 [Team SSX]


Mastercard 10% Off

Hannibal 2001 1080p BluRay x264 Eng-Hindi AC3 DD 5.1 [Team SSX]

0 Members and 1 Guest are viewing this topic.

February 14, 2019, 04:51:16 PM
  • ***************
  • Conqueror
  • Legend Member
  • *****
  • Topic Author
  • Thank You: 2066
  • Reputation: 588
  • Activity:
    100%
  • Country: pk
  • Posts: 2654
  • Topics: 1883
  • Join Date: Mar 2015
  • =$ Success Never Ends $=
Hannibal 2001 1080p BluRay x264 Eng-Hindi AC3 DD 5.1 [Team SSX]










General

Format : Matroska
Format version : Version 4
File size : 2.39 GiB
Duration : 2 h 11 min
Overall bit rate : 2 599 kb/s


Video
ID : 1
Format : AVC
Format/Info : Advanced Video Codec
Format profile : [email protected]
Format settings : CABAC / 4 Ref Frames
Format settings, CABAC : Yes
Format settings, RefFrames : 4 frames
Codec ID : V_MPEG4/ISO/AVC
Duration : 2 h 11 min
Bit rate : 1 862 kb/s
Width : 1 920 pixels
Height : 1 040 pixels
Display aspect ratio : 1.85:1
Frame rate mode : Constant
Frame rate : 23.976 (24000/1001) FPS
Color space : YUV
Chroma subsampling : 4:2:0
Bit depth : 8 bits
Scan type : Progressive
Bits/(Pixel*Frame) : 0.039
Stream size : 1.71 GiB (72%)
Default : Yes
Forced : No

Audio #1
ID : 2
Format : AAC LC
Format/Info : Advanced Audio Codec Low Complexity
Codec ID : A_AAC-2
Duration : 2 h 11 min
Bit rate : 96.0 kb/s
Channel(s) : 2 channels
Channel layout : L R
Sampling rate : 48.0 kHz
Frame rate : 46.875 FPS (1024 SPF)
Compression mode : Lossy
Delay relative to video : -125 ms
Stream size : 90.1 MiB (4%)
Language : English
Default : No
Forced : No

Audio #2
ID : 3
Format : E-AC-3
Format/Info : Enhanced AC-3
Commercial name : Dolby Digital Plus
Codec ID : A_EAC3
Duration : 2 h 11 min
Bit rate mode : Constant
Bit rate : 640 kb/s
Channel(s) : 6 channels
Channel layout : L R C LFE Ls Rs
Sampling rate : 48.0 kHz
Frame rate : 31.250 FPS (1536 SPF)
Compression mode : Lossy
Delay relative to video : 1 s 867 ms
Stream size : 601 MiB (25%)
Title : Team SSX
Language : Hindi
Service kind : Complete Main
Default : Yes
Forced : Yes

Text
ID : 4
Format : UTF-8
Codec ID : S_TEXT/UTF8
Codec ID/Info : UTF-8 Plain Text
Duration : 2 h 6 min
Bit rate : 51 b/s
Count of elements : 967
Stream size : 47.4 KiB (0%)
Default : Yes
Forced : No






 :ss:











 :download:








Share this topic on FacebookShare this topic on GoogleShare this topic on MySpaceShare this topic on TwitterShare this topic on Yahoo




Tags:
 

Related Topics





Back to top