+ ShareSpark.net »  :::: Bollywood Zone » Indian PC Videos
|- Dil Se (1998) Hindi 1080p Untouched WebHD AVC DD 5.1 {Music Video} ESuBS By-DusIcTv


Dil Se (1998) Hindi 1080p Untouched WebHD AVC DD 5.1 {Music Video} ESuBS By-DusIcTv

0 Members and 1 Guest are viewing this topic.

February 18, 2019, 06:00:09 PM
  • Junior Moderator
  • Legend Member
  • ***
  • Topic Author
  • Thank You: 7273
  • Reputation: 1490
  • Activity:
    97.8%
  • Country: np
  • Posts: 3061
  • Topics: 2386
  • Join Date: Jul 2016
  • *Love Forever*
Dil Se (1998) Hindi 1080p Untouched WebHD AVC DD 5.1 {Music Video} ESuBS By-DusIcTv




 :info:
Format                         : Matroska
Format version                 : Version 4
File size                      : 1.75 GB
Overall bit rate               : 11.5 Mb/s
Writing library : libebml v1.3.6 + libmatroska v1.4.9


Video
ID                             : 2
Format                         : AVC
Format/Info                    : Advanced Video Codec
Format profile                 : [email protected]
Format settings                : CABAC / 2 Ref Frames
Format settings, CABAC         : Yes
Format settings, ReFrames      : 2 frames
Format settings, GOP           : M=1, N=12
Codec ID                       : V_MPEG4/ISO/AVC
Bit rate                       : 11.3 Mb/s
Width                          : 1 920 pixels
Height                         : 1 080 pixels
Display aspect ratio           : 16:9
Frame rate mode                : Constant
Frame rate                     : 24.000 FPS
Color space                    : YUV
Chroma subsampling             : 4:2:0
Bit depth                      : 8 bits
Scan type                      : Progressive
Bits/(Pixel*Frame)             : 0.228
Stream size                    : 543 MiB (98%)
Language                       : Hindi
Default                        : Yes
Forced                         : No


Audio
ID                             : 1
Format                         : E-AC-3
Format/Info                    : Enhanced AC-3
Commercial name                : Dolby Digital Plus
Codec ID                       : A_EAC3
Bit rate mode                  : Constant
Bit rate                       : 192 kb/s
Channel(s)                     : 6 channels
Channel layout                 : L R C LFE Ls Rs
Sampling rate                  : 48.0 kHz
Frame rate                     : 31.250 FPS (1536 SPF)
Compression mode               : Lossy
Delay relative to video        : 22 ms
Stream size                    : 9.20 MiB (2%)
Language                       : Hindi
Service kind                   : Complete Main
Default                        : Yes
Forced                         : No


Text
ID                             : 3
Format                         : UTF-8
Codec ID                       : S_TEXT/UTF8
Codec ID/Info                  : UTF-8 Plain Text
Bit rate                       : 102 b/s
Count of elements              : 55
Stream size                    : 4.97 KiB (0%)
Language                       : English
Default                        : Yes
Forced                         : No



 :ss:















 :download:

Share this topic on FacebookShare this topic on GoogleShare this topic on MySpaceShare this topic on TwitterShare this topic on Yahoo

« Last Edit: August 18, 2019, 09:20:31 AM by Special26 »


Thanks given by:


August 13, 2019, 07:29:20 PM
Reply #1
  • Elite Member
  • ***
  • Thank You: 0
  • Reputation: 21
  • Activity:
    25.8%
  • Country: in
  • Posts: 447
  • Topics: 0
  • Join Date: Oct 2016
  • ShareSpark Member

Tags:
 

Related Topics





Back to top