+ ShareSpark.net »  :::: Bollywood Zone » Indian PC Videos
|- Main Hoon Na (2004) Hindi 1080p Untouched WebHD AVC DD 5.1 {Music Video} ~ Special26


Mastercard 10% Off
  • Main Hoon Na (2004) Hindi 1080p Untouched WebHD AVC DD 5.1 {Music Video} ~ Special26 5 1
Currently:  

Main Hoon Na (2004) Hindi 1080p Untouched WebHD AVC DD 5.1 {Music Video} ~ Special26

0 Members and 1 Guest are viewing this topic.

February 23, 2019, 11:25:14 AM
  • Conqueror
  • Legend Member
  • *****
  • Topic Author
  • Thank You: 7037
  • Reputation: 1441
  • Activity:
    100%
  • Country: np
  • Posts: 2876
  • Topics: 2253
  • Join Date: Jul 2016
  • *Love Forever*
Main Hoon Na (2004) Hindi 1080p Untouched WebHD AVC DD 5.1 {Music Video} ~ Special26




 :info:
Format                         : Matroska
Format version                 : Version 4
File size                      : 1.54 GB
Overall bit rate mode          : Variable
Overall bit rate               : 7 080 kb/s
Writing library  : libebml v1.3.6 + libmatroska v1.4.9 / Lavf58.0.0


Video
ID                             : 1
Format                         : AVC
Format/Info                    : Advanced Video Codec
Format profile                 : [email protected]
Format settings                : CABAC / 3 Ref Frames
Format settings, CABAC         : Yes
Format settings, ReFrames      : 3 frames
Codec ID                       : V_MPEG4/ISO/AVC
Bit rate mode                  : Variable
Bit rate                       : 6 694 kb/s
Maximum bit rate               : 9 285 kb/s
Width                          : 1 920 pixels
Height                         : 1 080 pixels
Display aspect ratio           : 16:9
Frame rate mode                : Constant
Frame rate                     : 25.000 FPS
Color space                    : YUV
Chroma subsampling             : 4:2:0
Bit depth                      : 8 bits
Scan type                      : Progressive
Bits/(Pixel*Frame)             : 0.129
Stream size                    : 273 MiB (95%)
Default                        : Yes
Forced                         : No


Audio
ID                             : 2
Format                         : AC-3
Format/Info                    : Audio Coding 3
Commercial name                : Dolby Digital
Codec ID                       : A_AC3
Bit rate mode                  : Constant
Bit rate                       : 384 kb/s
Channel(s)                     : 6 channels
Channel layout                 : L R C LFE Ls Rs
Sampling rate                  : 48.0 kHz
Frame rate                     : 31.250 FPS (1536 SPF)
Bit depth                      : 16 bits
Compression mode               : Lossy
Stream size                    : 15.7 MiB (5%)
Service kind                   : Complete Main
Default                        : Yes
Forced                         : No


Text #1
ID                             : 3
Format                         : UTF-8
Codec ID                       : S_TEXT/UTF8
Codec ID/Info                  : UTF-8 Plain Text
Bit rate                       : 101 b/s
Count of elements              : 40
Stream size                    : 3.61 KiB (0%)
Title                          : English
Language                       : English
Default                        : Yes
Forced                         : Yes


Text #2
ID                             : 4
Format                         : UTF-8
Codec ID                       : S_TEXT/UTF8
Codec ID/Info                  : UTF-8 Plain Text
Bit rate                       : 89 b/s
Count of elements              : 41
Stream size                    : 3.16 KiB (0%)
Title                          : Spanish
Language                       : Spanish
Default                        : No
Forced                         : No


Text #3
ID                             : 5
Format                         : UTF-8
Codec ID                       : S_TEXT/UTF8
Codec ID/Info                  : UTF-8 Plain Text
Bit rate                       : 82 b/s
Count of elements              : 41
Stream size                    : 2.93 KiB (0%)
Title                          : French
Language                       : French
Default                        : No
Forced                         : No


Text #4
ID                             : 6
Format                         : UTF-8
Codec ID                       : S_TEXT/UTF8
Codec ID/Info                  : UTF-8 Plain Text
Bit rate                       : 112 b/s
Count of elements              : 41
Stream size                    : 4.00 KiB (0%)
Title                          : German
Language                       : German
Default                        : No
Forced                         : No



 :ss:













 :download:

Share this topic on FacebookShare this topic on GoogleShare this topic on MySpaceShare this topic on TwitterShare this topic on Yahoo



Thanks given by:


February 23, 2019, 12:09:24 PM
Reply #1
  • Begginer
  • **
  • Thank You: 1
  • Reputation: 8
  • Activity:
    1.4%
  • Country: in
  • Posts: 67
  • Topics: 1
  • Join Date: Sep 2015
  • ShareSpark Member
Thanks bro, thanks for upload, nice share 😎😎😎😎😎

February 27, 2019, 09:10:29 AM
Reply #2
  • Semi Newbie
  • **
  • Thank You: 0
  • Reputation: 0
  • Activity:
    0%
  • Country: lk
  • Posts: 7
  • Topics: 0
  • Join Date: Jul 2017
  • ShareSpark Member

Tags:
 

Related Topics

  Subject / Started by Replies Last post
6 Replies
2502 Views
Last post July 03, 2018, 01:23:23 PM
by adgj
2 Replies
2895 Views
Last post November 23, 2016, 10:44:39 AM
by gprem54
1 Replies
714 Views
Last post January 07, 2019, 11:55:55 PM
by MayurSuccess
5 Replies
1045 Views
Last post January 09, 2019, 05:49:42 PM
by MayurSuccess
0 Replies
622 Views
Last post February 18, 2019, 06:00:09 PM
by Special26




Back to top