+ ShareSpark.net »  :::: Bollywood Zone » Indian PC Videos
|- Kismat Konnection (2008) Hindi 1080p Untouched WebHD AVC DD 5.1 {Music Video} ~ Special26


Amazon Fashion

Kismat Konnection (2008) Hindi 1080p Untouched WebHD AVC DD 5.1 {Music Video} ~ Special26

0 Members and 1 Guest are viewing this topic.

February 23, 2019, 11:27:11 AM
  • Conqueror
  • Legend Member
  • *****
  • Topic Author
  • Thank You: 7037
  • Reputation: 1441
  • Activity:
    100%
  • Country: np
  • Posts: 2876
  • Topics: 2253
  • Join Date: Jul 2016
  • *Love Forever*
Kismat Konnection (2008) Hindi 1080p Untouched WebHD AVC DD 5.1 {Music Video} ~ Special26




 :info:
Format                         : Matroska
Format version                 : Version 4
File size                      : 1.14 GB
Overall bit rate mode          : Variable
Overall bit rate               : 9 329 kb/s
Writing library : libebml v1.3.6 + libmatroska v1.4.9 / Lavf58.0.0


Video
ID                             : 1
Format                         : AVC
Format/Info                    : Advanced Video Codec
Format profile                 : [email protected]
Format settings                : CABAC / 3 Ref Frames
Format settings, CABAC         : Yes
Format settings, ReFrames      : 3 frames
Codec ID                       : V_MPEG4/ISO/AVC
Bit rate mode                  : Variable
Bit rate                       : 8 686 kb/s
Maximum bit rate               : 11.2 Mb/s
Width                          : 1 920 pixels
Height                         : 1 080 pixels
Display aspect ratio           : 16:9
Frame rate mode                : Constant
Frame rate                     : 25.000 FPS
Color space                    : YUV
Chroma subsampling             : 4:2:0
Bit depth                      : 8 bits
Scan type                      : Progressive
Bits/(Pixel*Frame)             : 0.168
Stream size                    : 236 MiB (93%)
Default                        : Yes
Forced                         : No


Audio
ID                             : 2
Format                         : E-AC-3
Format/Info                    : Enhanced AC-3
Commercial name                : Dolby Digital Plus
Codec ID                       : A_EAC3
Bit rate mode                  : Constant
Bit rate                       : 640 kb/s
Channel(s)                     : 6 channels
Channel layout                 : L R C LFE Ls Rs
Sampling rate                  : 48.0 kHz
Frame rate                     : 31.250 FPS (1536 SPF)
Compression mode               : Lossy
Stream size                    : 17.4 MiB (7%)
Service kind                   : Complete Main
Default                        : Yes
Forced                         : No


Text
ID                             : 3
Format                         : UTF-8
Codec ID                       : S_TEXT/UTF8
Codec ID/Info                  : UTF-8 Plain Text
Bit rate                       : 65 b/s
Count of elements              : 24
Stream size                    : 1.41 KiB (0%)
Title                          : English
Language                       : English
Default                        : Yes
Forced                         : Yes



 :ss:













 :download:

Share this topic on FacebookShare this topic on GoogleShare this topic on MySpaceShare this topic on TwitterShare this topic on Yahoo



Thanks given by:


May 11, 2019, 11:06:15 AM
Reply #1
  • Newbie
  • **
  • Thank You: 4
  • Reputation: 0
  • Activity:
    0.4%
  • Country: in
  • Posts: 2
  • Topics: 1
  • Join Date: Nov 2018
  • ShareSpark Member

Tags:
 

Related Topics

  Subject / Started by Replies Last post
0 Replies
1138 Views
Last post January 24, 2018, 10:04:59 PM
by UnikAaYush
0 Replies
516 Views
Last post July 18, 2018, 05:26:31 PM
by shahzaibjaan
1 Replies
713 Views
Last post January 07, 2019, 11:55:55 PM
by MayurSuccess
0 Replies
276 Views
Last post December 04, 2018, 09:30:58 AM
by Special26
0 Replies
621 Views
Last post February 18, 2019, 06:00:09 PM
by Special26




Back to top