+ ShareSpark.net »  :::: Bollywood Zone » Bollywood Movies (Original Rips)
|- Bhagam Bhag (2006) Hindi 720p BluRay x264 DD 5.1 ESubs - Sun George


Bhagam Bhag (2006) Hindi 720p BluRay x264 DD 5.1 ESubs - Sun George

0 Members and 1 Guest are viewing this topic.

February 27, 2019, 09:56:30 AM
  • Junior Moderator
  • Legend Member
  • ***
  • Topic Author
  • Thank You: 7245
  • Reputation: 1488
  • Activity:
    94.6%
  • Country: np
  • Posts: 3047
  • Topics: 2374
  • Join Date: Jul 2016
  • *Love Forever*
Bhagam Bhag (2006) Hindi 720p BluRay x264 DD 5.1 ESubs - Sun George






Source & Credit : DTOne (Thanks) !!

Format                                   : Matroska
Format version                           : Version 4
File size                                : 2.10 GiB
Duration                                 : 2 h 38 min
Overall bit rate                         : 1 892 kb/s


Video
ID                                       : 1
Format                                   : AVC
Format/Info                              : Advanced Video Codec
Format profile                           : [email protected]
Format settings                          : CABAC / 5 Ref Frames
Format settings, CABAC                   : Yes
Format settings, RefFrames               : 5 frames
Codec ID                                 : V_MPEG4/ISO/AVC
Duration                                 : 2 h 38 min
Bit rate                                 : 1 500 kb/s
Width                                    : 1 280 pixels
Height                                   : 544 pixels
Display aspect ratio                     : 2.35:1
Frame rate mode                          : Constant
Frame rate                               : 24.000 FPS
Color space                              : YUV
Chroma subsampling                       : 4:2:0
Bit depth                                : 8 bits
Scan type                                : Progressive
Bits/(Pixel*Frame)                       : 0.090
Stream size                              : 1.66 GiB (79%)


Audio
ID                                       : 2
Format                                   : AC-3
Format/Info                              : Audio Coding 3
Commercial name                          : Dolby Digital
Codec ID                                 : A_AC3
Duration                                 : 2 h 38 min
Bit rate mode                            : Constant
Bit rate                                 : 384 kb/s
Channel(s)                               : 6 channels
Channel layout                           : L R C LFE Ls Rs
Sampling rate                            : 48.0 kHz
Frame rate                               : 31.250 FPS (1536 SPF)
Bit depth                                : 16 bits
Compression mode                         : Lossy
Stream size                              : 436 MiB (20%)
Language                                 : Hindi
Service kind                             : Complete Main
Default                                  : Yes
Forced                                   : No


Text
ID                                       : 3
Format                                   : VobSub
Muxing mode                              : zlib
Codec ID                                 : S_VOBSUB
Codec ID/Info : Picture based subtitle format used on DVDs
Duration                                 : 2 h 32 min
Bit rate                                 : 9 448 b/s
Count of elements                        : 2441
Stream size                              : 10.3 MiB (0%)
Language                                 : English
Default                                  : Yes
Forced                                   : Yes















 :download:


Share this topic on FacebookShare this topic on GoogleShare this topic on MySpaceShare this topic on TwitterShare this topic on Yahoo



Thanks given by:


Tags:
 

Related Topics





Back to top