+ ShareSpark.net »  :::: Bollywood Zone » Indian PC Videos
|- Kis Kisko Pyaar Karoon (2015) Hindi 1080p Untouched WebHD AVC {Music Video} - Team DUS


Electroncs Sale

Kis Kisko Pyaar Karoon (2015) Hindi 1080p Untouched WebHD AVC {Music Video} - Team DUS

0 Members and 1 Guest are viewing this topic.

March 25, 2019, 08:18:06 PM
  • Conqueror
  • Legend Member
  • *****
  • Topic Author
  • Thank You: 7036
  • Reputation: 1440
  • Activity:
    100%
  • Country: np
  • Posts: 2876
  • Topics: 2253
  • Join Date: Jul 2016
  • *Love Forever*
Kis Kisko Pyaar Karoon (2015) Hindi 1080p Untouched WebHD AVC {Music Video} - Team DUS




 :info:
Format                         : Matroska
Format version                 : Version 4
File size                      : 890 MB
Overall bit rate               : 10.2 Mb/s


Video
ID                             : 1
Format                         : AVC
Format/Info                    : Advanced Video Codec
Format profile                 : [email protected]
Format settings                : CABAC / 4 Ref Frames
Format settings, CABAC         : Yes
Format settings, ReFrames      : 4 frames
Codec ID                       : V_MPEG4/ISO/AVC
Bit rate                       : 10.0 Mb/s
Width                          : 1 920 pixels
Height                         : 1 080 pixels
Display aspect ratio           : 16:9
Frame rate mode                : Constant
Frame rate                     : 25.000 FPS
Color space                    : YUV
Chroma subsampling             : 4:2:0
Bit depth                      : 8 bits
Scan type                      : Progressive
Bits/(Pixel*Frame)             : 0.193
Stream size                    : 207 MiB (98%)
Default                        : Yes
Forced                         : No


Audio
ID                             : 2
Format                         : AAC LC
Format/Info                    : Advanced Audio Codec
Codec ID                       : A_AAC-2
Bit rate                       : 192 kb/s
Channel(s)                     : 2 channels
Channel layout                 : L R
Sampling rate                  : 48.0 kHz
Frame rate                     : 46.875 FPS (1024 SPF)
Compression mode               : Lossy
Delay relative to video        : 8 ms
Stream size                    : 4.00 MiB (2%)
Default                        : Yes
Forced                         : No



 :ss:












 :download:

Share this topic on FacebookShare this topic on GoogleShare this topic on MySpaceShare this topic on TwitterShare this topic on Yahoo




Tags:
 

Related Topics





Back to top