+ ShareSpark.net »  :::: Bollywood Zone » Bollywood Movies (Original Rips)
|- Fanaa (2006) Hindi - 720p BluRay - x264 - DD 5.1 - ESubs -Sun George


Fanaa (2006) Hindi - 720p BluRay - x264 - DD 5.1 - ESubs -Sun George

0 Members and 1 Guest are viewing this topic.

April 17, 2019, 07:28:18 PM
  • Aur Time Well Come
  • Junior Moderator
  • Legend Member
  • ***
  • Topic Author
  • Thank You: 2149
  • Reputation: 607
  • Activity:
    36.8%
  • Country: pk
  • Posts: 2864
  • Topics: 2051
  • Join Date: Mar 2015
  • =$ Success Never Ends $=
Fanaa (2006) Hindi - 720p BluRay - x264 - DD 5.1 - ESubs -Sun George














General
Format : Matroska
Format version : Version 4
File size : 1.87 GiB
Duration : 2 h 48 min
Overall bit rate : 1 582 kb/s
Movie name : Fanaa (2006) Hindi - 720p BluRay - x264 - DD 5.1 - ESubs -Sun George



===================================================================



Video
ID : 1
Format : AVC
Format/Info : Advanced Video Codec
Format profile : [email protected]
Format settings : CABAC / 5 Ref Frames
Format settings, CABAC : Yes
Format settings, RefFrames : 5 frames
Codec ID : V_MPEG4/ISO/AVC
Duration : 2 h 48 min
Bit rate : 1 200 kb/s
Width : 1 280 pixels
Height : 544 pixels
Display aspect ratio : 2.35:1
Frame rate mode : Constant
Frame rate : 24.000 FPS
Color space : YUV
Chroma subsampling : 4:2:0
Bit depth : 8 bits
Scan type : Progressive
Bits/(Pixel*Frame) : 0.072
Stream size : 1.41 GiB (76%)
Title : Sun George



===================================================================



Audio
ID : 2
Format : AC-3
Format/Info : Audio Coding 3
Commercial name : Dolby Digital
Codec ID : A_AC3
Duration : 2 h 48 min
Bit rate mode : Constant
Bit rate : 384 kb/s
Channel(s) : 6 channels
Channel layout : L R C LFE Ls Rs
Sampling rate : 48.0 kHz
Frame rate : 31.250 FPS (1536 SPF)
Bit depth : 16 bits
Compression mode : Lossy
Delay relative to video : 9 ms
Stream size : 464 MiB (24%)
Title : Sun George
Language : Hindi
Service kind : Complete Main
Default : Yes
Forced : No

Text
ID : 3
Format : UTF-8
Codec ID : S_TEXT/UTF8
Codec ID/Info : UTF-8 Plain Text
Duration : 2 h 46 min
Bit rate : 52 b/s
Count of elements : 1774
Stream size : 64.0 KiB (0%)
Title : Sun George
Language : English
Default : Yes
Forced : Yes





 :ss:











 :download:








Share this topic on FacebookShare this topic on GoogleShare this topic on MySpaceShare this topic on TwitterShare this topic on Yahoo




Tags:
 

Related Topics





Back to top