+ ShareSpark.net »  :::: Bollywood Zone » Indian PC Videos
|- Khalnayak (1993) Hindi 1080p Untouched WebHD AVC DD Plus 2.0 ESub {Music Video} ESuBS By-DusIcTv


  • Khalnayak (1993) Hindi 1080p Untouched WebHD AVC DD Plus 2.0 ESub {Music Video} ESuBS By-DusIcTv 5 1
Currently:  

Khalnayak (1993) Hindi 1080p Untouched WebHD AVC DD Plus 2.0 ESub {Music Video} ESuBS By-DusIcTv

0 Members and 1 Guest are viewing this topic.

May 06, 2019, 11:10:19 AM
  • Junior Moderator
  • Legend Member
  • ***
  • Topic Author
  • Thank You: 7221
  • Reputation: 1485
  • Activity:
    93.6%
  • Country: np
  • Posts: 3026
  • Topics: 2357
  • Join Date: Jul 2016
  • *Love Forever*
Khalnayak (1993) Hindi 1080p Untouched WebHD AVC DD Plus 2.0 ESub {Music Video} ESuBS By-DusIcTv







 :info:
Format                                   : Matroska
Format version                           : Version 4
File size                                : 2.23 GB
Overall bit rate mode                    : Variable
Overall bit rate                         : 7 087 kb/s
Writing application                      : mkvmerge v32.0.0 ('Astral Progressions') 32-bit
Writing library                          : libebml v1.3.7 + libmatroska v1.5.0


Video
ID                                       : 1
Format                                   : AVC
Format/Info                              : Advanced Video Codec
Format profile                           : [email protected]
Format settings                          : CABAC / 3 Ref Frames
Format settings, CABAC                   : Yes
Format settings, RefFrames               : 3 frames
Codec ID                                 : V_MPEG4/ISO/AVC
Bit rate mode                            : Variable
Bit rate                                 : 6 957 kb/s
Maximum bit rate                         : 10.2 Mb/s
Width                                    : 1 920 pixels
Height                                   : 1 080 pixels
Display aspect ratio                     : 16:9
Frame rate mode                          : Constant
Frame rate                               : 25.000 FPS
Color space                              : YUV
Chroma subsampling                       : 4:2:0
Bit depth                                : 8 bits
Scan type                                : Progressive
Bits/(Pixel*Frame)                       : 0.134
Stream size                              : 353 MiB (98%)
Default                                  : Yes
Forced                                   : No


Audio
ID                                       : 2
Format                                   : E-AC-3
Format/Info                              : Enhanced AC-3
Commercial name                          : Dolby Digital Plus
Codec ID                                 : A_EAC3
Bit rate mode                            : Constant
Bit rate                                 : 128 kb/s
Channel(s)                               : 2 channels
Channel layout                           : L R
Sampling rate                            : 48.0 kHz
Frame rate                               : 31.250 FPS (1536 SPF)
Compression mode                         : Lossy
Stream size                              : 6.50 MiB (2%)
Language                                 : Hindi
Service kind                             : Complete Main
Default                                  : Yes
Forced                                   : No


Text
ID                                       : 3
Format                                   : UTF-8
Codec ID                                 : S_TEXT/UTF8
Codec ID/Info                            : UTF-8 Plain Text
Bit rate                                 : 25 b/s
Count of elements                        : 43
Stream size                              : 1.21 KiB (0%)
Language                                 : English
Default                                  : Yes
Forced                                   : No




 :ss:








 :download:


Share this topic on FacebookShare this topic on GoogleShare this topic on MySpaceShare this topic on TwitterShare this topic on Yahoo

« Last Edit: May 06, 2019, 11:12:55 AM by Special26 »


Thanks given by:


July 29, 2019, 02:42:05 PM
Reply #1
  • Begginer
  • **
  • Thank You: 1
  • Reputation: 8
  • Activity:
    0.6%
  • Country: in
  • Posts: 70
  • Topics: 1
  • Join Date: Sep 2015
  • ShareSpark Member

Tags:
 

Related Topics





Back to top