+ ShareSpark.net »  :::: Dubbed Zone (Dubbed English in Hindi) » English Movies Dubbed in Hindi » High Resolution Movies
|- Indiana Jones And The Temple Of Doom 1984 {Dual Audio} 1080p BluRay [ English - Hindi Org DD 5.1 640


Indiana Jones And The Temple Of Doom 1984 {Dual Audio} 1080p BluRay [ English - Hindi Org DD 5.1 640

0 Members and 1 Guest are viewing this topic.

May 12, 2019, 04:25:22 PM
  • Admin
  • Legend Member
  • ****
  • Topic Author
  • Thank You: 2521
  • Reputation: 664
  • Activity:
    12.2%
  • Country: in
  • Posts: 3808
  • Topics: 2283
  • Join Date: Dec 2013
  • ShareSpark Member

Indiana Jones And The Temple Of Doom 1984

{Dual Audio} 1080p BluRay

[ English - Hindi Org DD 5.1 640 Kbps ]

H264 AAC - 2.78 GB



Poster































General


Format                                   : Matroska
Format version                           : Version 4
File size                                : 2.79 GiB
Duration                                 : 1 h 58 min
Overall bit rate                         : 3 360 kb/s
Encoded date                             : UTC 2019-05-12 10:32:35
Writing application                      : mkvmerge v20.0.0 ('I Am The Sun') 64-bit
Writing library                          : libebml v1.3.5 + libmatroska v1.4.8


Video


ID                                       : 1
Format                                   : AVC
Format/Info                              : Advanced Video Codec
Format profile                           : [email protected]
Format settings                          : CABAC / 4 Ref Frames
Format settings, CABAC                   : Yes
Format settings, RefFrames               : 4 frames
Codec ID                                 : V_MPEG4/ISO/AVC
Duration                                 : 1 h 58 min
Bit rate                                 : 2 500 kb/s
Width                                    : 1 920 pixels
Height                                   : 816 pixels
Display aspect ratio                     : 2.35:1
Frame rate mode                          : Constant
Frame rate                               : 23.976 (23976/1000) FPS
Color space                              : YUV
Chroma subsampling                       : 4:2:0
Bit depth                                : 8 bits
Scan type                                : Progressive
Bits/(Pixel*Frame)                       : 0.067
Stream size                              : 2.07 GiB (74%)
Writing library                          : x264 core 152 r2851M ba24899
Encoding settings                        : cabac=1 / ref=4 / deblock=1:-1:-1 / analyse=0x3:0x113 / me=umh / subme=9 / psy=1 / psy_rd=1.00:0.15 / mixed_ref=1 / me_range=24 / chroma_me=1 / trellis=2 / 8x8dct=1 / cqm=0 / deadzone=21,11 / fast_pskip=1 / chroma_qp_offset=-3 / threads=32 / lookahead_threads=4 / sliced_threads=0 / nr=0 / decimate=1 / interlaced=0 / bluray_compat=0 / constrained_intra=0 / bframes=3 / b_pyramid=2 / b_adapt=2 / b_bias=0 / direct=3 / weightb=1 / open_gop=0 / weightp=2 / keyint=250 / keyint_min=25 / scenecut=40 / intra_refresh=0 / rc_lookahead=50 / rc=2pass / mbtree=1 / bitrate=2500 / ratetol=1.0 / qcomp=0.60 / qpmin=0 / qpmax=69 / qpstep=4 / cplxblur=20.0 / qblur=0.5 / vbv_maxrate=31250 / vbv_bufsize=31250 / nal_hrd=none / filler=0 / ip_ratio=1.40 / aq=3:1.00
Language                                 : English
Default                                  : Yes
Forced                                   : Yes


Audio #1


ID                                       : 2
Format                                   : E-AC-3
Format/Info                              : Enhanced AC-3
Commercial name                          : Dolby Digital Plus
Codec ID                                 : A_EAC3
Duration                                 : 1 h 58 min
Bit rate mode                            : Constant
Bit rate                                 : 640 kb/s
Channel(s)                               : 6 channels
Channel layout                           : L R C LFE Ls Rs
Sampling rate                            : 48.0 kHz
Frame rate                               : 31.250 FPS (1536 SPF)
Compression mode                         : Lossy
Delay relative to video                  : -43 ms
Stream size                              : 543 MiB (19%)
Language                                 : Hindi
Service kind                             : Complete Main
Default                                  : Yes
Forced                                   : Yes


Audio #2


ID                                       : 3
Format                                   : AAC LC
Format/Info                              : Advanced Audio Codec Low Complexity
Codec ID                                 : A_AAC-2
Duration                                 : 1 h 58 min
Bit rate                                 : 224 kb/s
Channel(s)                               : 6 channels
Channel layout                           : C L R Ls Rs LFE
Sampling rate                            : 48.0 kHz
Frame rate                               : 46.875 FPS (1024 SPF)
Compression mode                         : Lossy
Delay relative to video                  : -43 ms
Stream size                              : 190 MiB (7%)
Language                                 : English
Default                                  : No
Forced                                   : No







Thanks To Hammer For Hindi Audio










      
























      
      

Share this topic on FacebookShare this topic on GoogleShare this topic on MySpaceShare this topic on TwitterShare this topic on Yahoo

« Last Edit: May 12, 2019, 04:26:22 PM by тнє ωαll 81317 »



Thanks given by:


May 16, 2019, 08:00:41 PM
Reply #1
  • Hero Member
  • ***
  • Thank You: 4
  • Reputation: -5
  • Activity:
    15%
  • Country: pk
  • Posts: 389
  • Topics: 8
  • Join Date: Mar 2013
  • ShareSpark Member

Tags:
 

Related Topics





Back to top