+ ShareSpark.net »  :::: Bollywood Zone » Bollywood Movies (Original Rips) » Bollywood Movies (1945-2000)
|- Lahoo Ke Do Rang (1997) 720p HD-Rip X264 AC-3 [XMR]


Lahoo Ke Do Rang (1997) 720p HD-Rip X264 AC-3 [XMR]

0 Members and 1 Guest are viewing this topic.

May 15, 2019, 10:00:47 AM
  • Junior Moderator
  • Legend Member
  • ***
  • Topic Author
  • Thank You: 7216
  • Reputation: 1484
  • Activity:
    91.4%
  • Country: np
  • Posts: 3016
  • Topics: 2351
  • Join Date: Jul 2016
  • *Love Forever*
Lahoo Ke Do Rang (1997) 720p HD-Rip X264 AC-3 [XMR]




 :info:
Format                      : Matroska
Format version              : Version 2
File size                   : 1.50 GiB
Duration                    : 2 h 26 min
Overall bit rate            : 1 466 kb/s
Writing library : libebml v1.3.6 + libmatroska v1.4.9


Video
ID                          : 1
Format                      : AVC
Format/Info                 : Advanced Video Codec
Format profile              : [email protected]
Format settings             : CABAC / 4 Ref Frames
Format settings, CABAC      : Yes
Format settings, ReFrames   : 4 frames
Codec ID                    : V_MPEG4/ISO/AVC
Duration                    : 2 h 26 min
Bit rate                    : 1 331 kb/s
Width                       : 1 280 pixels
Height                      : 544 pixels
Display aspect ratio        : 2.35:1
Frame rate mode             : Constant
Frame rate                  : 25.000 FPS
Color space                 : YUV
Chroma subsampling          : 4:2:0
Bit depth                   : 8 bits
Scan type                   : Progressive
Bits/(Pixel*Frame)          : 0.076
Stream size                 : 1.37 GiB (91%)


Audio
ID                          : 2
Format                      : AC-3
Format/Info                 : Audio Coding 3
Commercial name             : Dolby Digital
Codec ID                    : A_AC3
Duration                    : 2 h 26 min
Bit rate mode               : Constant
Bit rate                    : 128 kb/s
Channel(s)                  : 2 channels
Channel layout              : L R
Sampling rate               : 44.1 kHz
Frame rate                  : 28.711 FPS (1536 SPF)
Bit depth                   : 16 bits
Compression mode            : Lossy
Stream size                 : 134 MiB (9%)
Service kind                : Complete Main
Default                     : Yes
Forced                      : No




 :ss:


 :download:


Share this topic on FacebookShare this topic on GoogleShare this topic on MySpaceShare this topic on TwitterShare this topic on Yahoo



Thanks given by:


Tags:
 

Related Topics

  Subject / Started by Replies Last post
2 Replies
921 Views
Last post June 04, 2014, 07:41:45 AM
by MusicFreak
0 Replies
693 Views
Last post August 21, 2014, 02:15:59 PM
by Best
0 Replies
610 Views
Last post September 26, 2014, 12:40:38 AM
by ♥ βịῤʊʅ βἄѤƧђᶖ ♥
0 Replies
1053 Views
Last post January 27, 2015, 06:27:37 AM
by ♫♪ RΩCK BΩY ♥♫
2 Replies
119 Views
Last post August 08, 2019, 10:53:25 AM
by onlyvicky2050




Back to top