+ ShareSpark.net »  :::: Bollywood Zone » Indian PC Videos
|- Simmba (2019) Hindi 1080p BluRay x264 HDMA DTS 5.1 {Music Video} ESub - DusIcTv


100% Recharge Offer
  • Simmba (2019) Hindi 1080p BluRay x264 HDMA DTS 5.1 {Music Video} ESub - DusIcTv 5 1
Currently:  

Simmba (2019) Hindi 1080p BluRay x264 HDMA DTS 5.1 {Music Video} ESub - DusIcTv

0 Members and 1 Guest are viewing this topic.

June 15, 2019, 09:18:50 AM
  • Conqueror
  • Legend Member
  • *****
  • Topic Author
  • Thank You: 7036
  • Reputation: 1440
  • Activity:
    100%
  • Country: np
  • Posts: 2876
  • Topics: 2253
  • Join Date: Jul 2016
  • *Love Forever*
Simmba (2019) Hindi 1080p BluRay x264 HDMA DTS 5.1 {Music Video} ESub - DusIcTv








 :info:
Source....................: DusIcTv  DUS KA SHER (Thanks) !!

Format                         : Matroska
Format version                 : Version 4
File size                      : 2.03 GB
Overall bit rate mode          : Variable
Overall bit rate               : 15.2 Mb/s
Writing application            : mkvmerge v34.0.0 ('Sight and Seen') 64-bit
Writing library                : libebml v1.3.7 + libmatroska v1.5.0


Video
ID                             : 1
Format                         : AVC
Format/Info                    : Advanced Video Codec
Format profile                 : [email protected]
Format settings                : CABAC / 4 Ref Frames
Format settings, CABAC         : Yes
Format settings, ReFrames      : 4 frames
Codec ID                       : V_MPEG4/ISO/AVC
Bit rate                       : 10.9 Mb/s
Width                          : 1 920 pixels
Height                         : 816 pixels
Display aspect ratio           : 2.35:1
Frame rate mode                : Constant
Frame rate                     : 24.000 FPS
Color space                    : YUV
Chroma subsampling             : 4:2:0
Bit depth                      : 8 bits
Scan type                      : Progressive
Bits/(Pixel*Frame)             : 0.289
Stream size                    : 258 MiB (71%)
Title                          : Dusictv
Default                        : Yes
Forced                         : No


Audio
ID                             : 2
Format                         : DTS XLL
Format/Info                    : Digital Theater Systems
Commercial name                : DTS-HD Master Audio
Codec ID                       : A_DTS
Bit rate mode                  : Variable
Bit rate                       : 4 378 kb/s
Channel(s)                     : 6 channels
Channel layout                 : C L R Ls Rs LFE
Sampling rate                  : 48.0 kHz
Frame rate                     : 93.750 FPS (512 SPF)
Bit depth                      : 24 bits
Compression mode               : Lossless
Delay relative to video        : 4 ms
Stream size                    : 104 MiB (29%)
Title                          : Dusictv
Language                       : Hindi
Default                        : Yes
Forced                         : No


Text
ID                             : 3
Format                         : PGS
Muxing mode                    : zlib
Codec ID                       : S_HDMV/PGS
Codec ID/Info                  : Picture based subtitle format used on BDs/HD-DVDs
Bit rate                       : 19.9 kb/s
Count of elements              : 69
Stream size                    : 431 KiB (0%)
Title                          : Eng
Language                       : English
Default                        : Yes
Forced                         : No


Menu
00:00:00.000                   : en:00:32:11.750
00:00:06.250                   : en:00:42:37.083




 :ss:














 :download:



Share this topic on FacebookShare this topic on GoogleShare this topic on MySpaceShare this topic on TwitterShare this topic on Yahoo



Thanks given by:


June 18, 2019, 06:54:47 AM
Reply #1
  • Semi Newbie
  • **
  • Thank You: 0
  • Reputation: 1
  • Activity:
    0.4%
  • Country: in
  • Posts: 47
  • Topics: 0
  • Join Date: Oct 2016
  • ShareSpark Member
 :thank: :thumbs:
PLEASE UPLOAD EACH SONG WITH SEPARATE DOWNLOAD LINKS.....IF POSSIBLE PLEASE UPLOAD IN GOOGLE DRIVE

June 22, 2019, 01:43:02 AM
Reply #2
  • Hot Member
  • ***
  • Thank You: 0
  • Reputation: 9
  • Activity:
    20.8%
  • Country: au
  • Posts: 535
  • Topics: 0
  • Join Date: Oct 2017
  • ShareSpark Member

June 28, 2019, 10:03:10 AM
Reply #3
  • Begginer
  • **
  • Thank You: 50
  • Reputation: 7
  • Activity:
    2.8%
  • Country: in
  • Posts: 66
  • Topics: 16
  • Join Date: Oct 2016
  • ShareSpark Member

June 28, 2019, 09:56:14 PM
Reply #4
  • Begginer
  • **
  • Thank You: 0
  • Reputation: 0
  • Activity:
    1%
  • Country: in
  • Posts: 57
  • Topics: 0
  • Join Date: Nov 2013
  • ShareSpark Member
separate songs please. Or at least provide a drive link where we can download separate songs... THANKS

Tags:
 

Related Topics

  Subject / Started by Replies Last post
0 Replies
487 Views
Last post April 26, 2015, 09:20:37 PM
by lovely1629
0 Replies
418 Views
Last post May 06, 2019, 11:10:19 AM
by Special26
1 Replies
306 Views
Last post June 08, 2019, 12:24:20 AM
by Changezi
2 Replies
682 Views
Last post June 22, 2019, 02:18:03 AM
by Changezi
2 Replies
313 Views
Last post July 06, 2019, 01:54:21 PM
by Changezi




Back to top