+ ShareSpark.net »  :::: Bollywood Zone » Indian PC Videos
|- Zero (2019) Hindi 1080p BluRay x264 HDMA DTS 5.1 {Music Video} ESub - DusIcTv


TV and Appliances
  • Zero (2019) Hindi 1080p BluRay x264 HDMA DTS 5.1 {Music Video} ESub - DusIcTv 5 1
Currently:  

Zero (2019) Hindi 1080p BluRay x264 HDMA DTS 5.1 {Music Video} ESub - DusIcTv

0 Members and 1 Guest are viewing this topic.

June 15, 2019, 09:29:06 AM
  • Conqueror
  • Legend Member
  • *****
  • Topic Author
  • Thank You: 7037
  • Reputation: 1441
  • Activity:
    100%
  • Country: np
  • Posts: 2876
  • Topics: 2253
  • Join Date: Jul 2016
  • *Love Forever*
Zero (2019) Hindi 1080p BluRay x264 HDMA DTS 5.1 {Music Video} ESub - DusIcTv








 :info:
Source....................: DusIcTv  DUS KA SHER (Thanks) !!

Format                         : Matroska
Format version                 : Version 4
File size                      : 2.16 GB
Overall bit rate mode          : Variable
Overall bit rate               : 15.5 Mb/s
Writing application            : mkvmerge v34.0.0 ('Sight and Seen') 64-bit
Writing library                : libebml v1.3.7 + libmatroska v1.5.0


Video
ID                             : 1
Format                         : AVC
Format/Info                    : Advanced Video Codec
Format profile                 : [email protected]
Format settings                : CABAC / 4 Ref Frames
Format settings, CABAC         : Yes
Format settings, ReFrames      : 4 frames
Codec ID                       : V_MPEG4/ISO/AVC
Bit rate                       : 10.5 Mb/s
Width                          : 1 920 pixels
Height                         : 816 pixels
Display aspect ratio           : 2.35:1
Frame rate mode                : Constant
Frame rate                     : 24.000 FPS
Color space                    : YUV
Chroma subsampling             : 4:2:0
Bit depth                      : 8 bits
Scan type                      : Progressive
Bits/(Pixel*Frame)             : 0.280
Stream size                    : 401 MiB (68%)
Title                          : Dusictv
Default                        : Yes
Forced                         : No


Audio
ID                             : 2
Format                         : DTS XLL
Format/Info                    : Digital Theater Systems
Commercial name                : DTS-HD Master Audio
Codec ID                       : A_DTS
Bit rate mode                  : Variable
Bit rate                       : 5 016 kb/s
Channel(s)                     : 6 channels
Channel layout                 : C L R Ls Rs LFE
Sampling rate                  : 48.0 kHz
Frame rate                     : 93.750 FPS (512 SPF)
Bit depth                      : 24 bits
Compression mode               : Lossless
Delay relative to video        : 10 ms
Stream size                    : 191 MiB (32%)
Title                          : Dusictv
Language                       : Hindi
Default                        : Yes
Forced                         : No


Text
ID                             : 3
Format                         : PGS
Muxing mode                    : zlib
Codec ID                       : S_HDMV/PGS
Codec ID/Info                  : Picture based subtitle format used on BDs/HD-DVDs
Bit rate                       : 17.4 kb/s
Count of elements              : 76
Stream size                    : 671 KiB (0%)
Title                          : Eng
Language                       : English
Default                        : Yes
Forced                         : No


Menu
00:00:00.000                   : en:00:12:09.042
00:00:14.708                   : en:00:36:05.333




 :ss:


'
















 :download:



Share this topic on FacebookShare this topic on GoogleShare this topic on MySpaceShare this topic on TwitterShare this topic on Yahoo



Thanks given by:


June 18, 2019, 06:52:54 AM
Reply #1
  • Semi Newbie
  • **
  • Thank You: 0
  • Reputation: 1
  • Activity:
    0.4%
  • Country: in
  • Posts: 47
  • Topics: 0
  • Join Date: Oct 2016
  • ShareSpark Member
 :thank: :thumbs:
PLEASE UPLOAD EACH SONG WITH SEPARATE DOWNLOAD LINKS....IF POSSIBLE PLEASE UPLOAD IN GOOGLE DRIVE.

June 22, 2019, 02:18:03 AM
Reply #2
  • Hot Member
  • ***
  • Thank You: 0
  • Reputation: 8
  • Activity:
    20.8%
  • Country: au
  • Posts: 535
  • Topics: 0
  • Join Date: Oct 2017
  • ShareSpark Member

Tags:
 

Related Topics





Back to top