+ ShareSpark.net »  :::: Bollywood Zone » Bollywood Movies (Original Rips)
|- Kalank 2019 x264 720p Esub Amazon Hindi [TEAM BWT]


Kalank 2019 x264 720p Esub Amazon Hindi [TEAM BWT]

0 Members and 1 Guest are viewing this topic.

July 04, 2019, 05:04:53 PM
  • Aur Time Well Come
  • Conqueror
  • Legend Member
  • *****
  • Topic Author
  • Thank You: 2127
  • Reputation: 604
  • Activity:
    64.6%
  • Country: pk
  • Posts: 2790
  • Topics: 1987
  • Join Date: Mar 2015
  • =$ Success Never Ends $=
Kalank 2019 x264 720p Esub Amazon Hindi  [TEAM BWT]





Format                         : Matroska
Format version                 : Version 4
File size                      : 946 MiB
Duration                       : 2 h 45 min
Overall bit rate               : 798 kb/s
Movie name                     : Kalank 2019 GOPISAHI

Video
Format                         : AVC
Format/Info                    : Advanced Video Codec
Format profile                 : [email protected]
Format settings                : CABAC / 6 Ref Frames
Codec ID                       : V_MPEG4/ISO/AVC
Duration                       : 2 h 45 min
Bit rate                       : 699 kb/s
Width                          : 1 268 pixels
Height                         : 528 pixels
Display aspect ratio           : 2.40:1
Frame rate mode                : Constant
Frame rate                     : 24.000 FPS
Color space                    : YUV
Chroma subsampling             : 4:2:0
Bit depth                      : 8 bits
Scan type                      : Progressive
Bits/(Pixel*Frame)             : 0.044
Stream size                    : 829 MiB (88%)
Title                          : GOPISAHI
Writing library                : x264 core 157 r2935 545de2f

Audio
Format                         : AAC LC
Duration                       : 2 h 45 min
Bit rate                       : 96.0 kb/s
Channel(s)                     : 2 channels
Channel layout                 : L R
Sampling rate                  : 48.0 kHz
Frame rate                     : 46.875 FPS (1024 SPF)
Compression mode               : Lossy
Delay relative to video        : -21 ms
Stream size                    : 114 MiB (12%)
Title                          : GOPISAHI
Language                       : Hindi

Text
Language                       : English




 :ss:











 :download:






Share this topic on FacebookShare this topic on GoogleShare this topic on MySpaceShare this topic on TwitterShare this topic on Yahoo




Tags:
 

Related Topics





Back to top