+ ShareSpark.net »  :::: Bollywood Zone » Regional Movies » Bengali Movies
|- Prem Amar 2 (2019) Bengali Movie - 720p - HDRip [x264 - AC3(5.1Ch)] - 1.4 GB


Prem Amar 2 (2019) Bengali Movie - 720p - HDRip [x264 - AC3(5.1Ch)] - 1.4 GB

0 Members and 1 Guest are viewing this topic.

July 05, 2019, 10:07:00 AM
  • Semi Newbie
  • **
  • Topic Author
  • Thank You: 15
  • Reputation: 4
  • Activity:
    5.4%
  • Country: bd
  • Posts: 38
  • Topics: 38
  • Join Date: Dec 2017
  • ShareSpark Member
          Prem Amar 2 (2019) Bengali Movie - 720p -
HDRip [x264 - AC3(5.1Ch)] - 1.4 GB   
 




Code: [Select]
General
Format                                   : Matroska
Format version                           : Version 4
File size                                : 1.40 GiB
Duration                                 : 2 h 24 min

Video
ID                                       : 1
Format                                   : AVC
Format/Info                              : Advanced Video Codec
Format profile                           : [email protected]
Format settings                          : CABAC / 4 Ref Frames
Format settings, CABAC                   : Yes
Format settings, Reference frames        : 4 frames
Codec ID                                 : V_MPEG4/ISO/AVC
Duration                                 : 2 h 24 min
Bit rate                                 : 1 197 kb/s
Width                                    : 1 280 pixels
Height                                   : 544 pixels
Display aspect ratio                     : 2.35:1
Frame rate mode                          : Constant
Frame rate                               : 25.000 FPS
Color space                              : YUV
Chroma subsampling                       : 4:2:0
Bit depth                                : 8 bits
Scan type                                : Progressive
Bits/(Pixel*Frame)                       : 0.069
Stream size                              : 1.21 GiB (86%)

Audio
ID                                       : 2
Format                                   : AC-3
Format/Info                              : Audio Coding 3
Commercial name                          : Dolby Digital
Codec ID                                 : A_AC3
Duration                                 : 2 h 24 min
Bit rate mode                            : Constant
Bit rate                                 : 192 kb/s
Channel(s)                               : 6 channels
Channel layout                           : L R C LFE Ls Rs
Sampling rate                            : 48.0 kHz
Stream size                              : 198 MiB (14%)
Language                                 : Bengali
   Thumbnail   








Share this topic on FacebookShare this topic on GoogleShare this topic on MySpaceShare this topic on TwitterShare this topic on Yahoo




Tags: Romance 
 

Related Topics

  Subject / Started by Replies Last post
1 Replies
836 Views
Last post January 22, 2015, 08:09:02 PM
by krishna98325
0 Replies
1354 Views
Last post May 27, 2017, 06:23:29 PM
by Mr. MonsTer
0 Replies
95 Views
Last post July 08, 2019, 02:17:28 AM
by Pherarim
0 Replies
97 Views
Last post July 14, 2019, 05:48:21 PM
by Pherarim
0 Replies
112 Views
Last post July 15, 2019, 09:36:55 PM
by zahidulbd




Back to top