+ ShareSpark.net »  :::: Bollywood Zone » Indian PC Videos
|- Sir (1993) Hindi 1080p Untouched WebHD AVC DD Plus 2.0 {Music Video} ESuBS By-DusIcTv


  • Sir (1993) Hindi 1080p Untouched WebHD AVC DD Plus 2.0 {Music Video} ESuBS By-DusIcTv 5 1
Currently:  

Sir (1993) Hindi 1080p Untouched WebHD AVC DD Plus 2.0 {Music Video} ESuBS By-DusIcTv

0 Members and 1 Guest are viewing this topic.

July 09, 2019, 09:39:23 AM
  • Junior Moderator
  • Legend Member
  • ***
  • Topic Author
  • Thank You: 7223
  • Reputation: 1485
  • Activity:
    93.2%
  • Country: np
  • Posts: 3026
  • Topics: 2357
  • Join Date: Jul 2016
  • *Love Forever*
Sir (1993) Hindi 1080p Untouched WebHD AVC DD Plus 2.0 {Music Video} ESuBS By-DusIcTv





 :info:
Format                         : Matroska
Format version                 : Version 4
File size                      : 4.03 GB
Overall bit rate               : 13.6 Mb/s
Writing library : libebml v1.3.6 + libmatroska v1.4.9


Video
ID                             : 1
Format                         : AVC
Format/Info                    : Advanced Video Codec
Format profile                 : [email protected]
Format settings                : CABAC / 4 Ref Frames
Format settings, CABAC         : Yes
Format settings, ReFrames      : 4 frames
Codec ID                       : V_MPEG4/ISO/AVC
Bit rate                       : 13.4 Mb/s
Width                          : 1 920 pixels
Height                         : 816 pixels
Display aspect ratio           : 2.35:1
Frame rate mode                : Constant
Frame rate                     : 25.000 FPS
Color space                    : YUV
Chroma subsampling             : 4:2:0
Bit depth                      : 8 bits
Scan type                      : Progressive
Bits/(Pixel*Frame)             : 0.342
Stream size                    : 601 MiB (98%)
Default                        : Yes
Forced                         : No
Color range                    : Limited
Color primaries                : BT.709
Transfer characteristics       : BT.709
Matrix coefficients            : BT.709


Audio
ID                             : 2
Format                         : E-AC-3
Format/Info                    : Enhanced AC-3
Commercial name                : Dolby Digital Plus
Codec ID                       : A_EAC3
Bit rate mode                  : Constant
Bit rate                       : 224 kb/s
Channel(s)                     : 2 channels
Channel layout                 : L R
Sampling rate                  : 48.0 kHz
Frame rate                     : 31.250 FPS (1536 SPF)
Compression mode               : Lossy
Delay relative to video        : 24 ms
Stream size                    : 10.1 MiB (2%)
Title                          : Hindi
Language                       : Hindi
Service kind                   : Complete Main
Default                        : No
Forced                         : No



 :ss:














 :download:




Share this topic on FacebookShare this topic on GoogleShare this topic on MySpaceShare this topic on TwitterShare this topic on Yahoo

« Last Edit: August 13, 2019, 10:33:09 AM by Special26 »


Thanks given by:


July 09, 2019, 08:50:49 PM
Reply #1
  • Hot Member
  • ***
  • Thank You: 0
  • Reputation: 8
  • Activity:
    23.6%
  • Country: au
  • Posts: 570
  • Topics: 0
  • Join Date: Oct 2017
  • ShareSpark Member

July 29, 2019, 02:41:00 PM
Reply #2
  • Begginer
  • **
  • Thank You: 1
  • Reputation: 8
  • Activity:
    0.6%
  • Country: in
  • Posts: 70
  • Topics: 1
  • Join Date: Sep 2015
  • ShareSpark Member

August 11, 2019, 11:10:55 PM
Reply #3
  • Semi Newbie
  • **
  • Thank You: 0
  • Reputation: 0
  • Activity:
    2%
  • Country: in
  • Posts: 18
  • Topics: 0
  • Join Date: Dec 2017
  • ShareSpark Member

August 13, 2019, 10:35:21 AM
Reply #4
  • Junior Moderator
  • Legend Member
  • ***
  • Topic Author
  • Thank You: 7223
  • Reputation: 1485
  • Activity:
    93.2%
  • Country: np
  • Posts: 3026
  • Topics: 2357
  • Join Date: Jul 2016
  • *Love Forever*

Tags:
 

Related Topics





Back to top