+ ShareSpark.net »  :::: Bollywood Zone » Indian PC Videos
|- Tadipaar (1993) Hindi 1080p Untouched WebHD AVC DD Plus 2.0 {Music Video} ESuBS By-DusIcTv


Tadipaar (1993) Hindi 1080p Untouched WebHD AVC DD Plus 2.0 {Music Video} ESuBS By-DusIcTv

0 Members and 1 Guest are viewing this topic.

July 09, 2019, 09:45:08 AM
  • Conqueror
  • Legend Member
  • *****
  • Topic Author
  • Thank You: 7038
  • Reputation: 1441
  • Activity:
    100%
  • Country: np
  • Posts: 2876
  • Topics: 2253
  • Join Date: Jul 2016
  • *Love Forever*
Tadipaar (1993) Hindi 1080p Untouched WebHD AVC DD Plus 2.0 {Music Video} ESuBS By-DusIcTv






:info:

Format                         : Matroska
Format version                 : Version 4
File size                      : 3.46 GB
Overall bit rate mode          : Variable
Overall bit rate               : 14.4 Mb/s
Writing library : libebml v1.3.6 + libmatroska v1.4.9


Video
ID                             : 1
Format                         : AVC
Format/Info                    : Advanced Video Codec
Format profile                 : [email protected]
Format settings                : CABAC / 4 Ref Frames
Format settings, CABAC         : Yes
Format settings, ReFrames      : 4 frames
Codec ID                       : V_MPEG4/ISO/AVC
Bit rate mode                  : Variable
Bit rate                       : 14.2 Mb/s
Maximum bit rate               : 15.0 Mb/s
Width                          : 1 920 pixels
Height                         : 816 pixels
Display aspect ratio           : 2.35:1
Frame rate mode                : Constant
Frame rate                     : 25.000 FPS
Color space                    : YUV
Chroma subsampling             : 4:2:0
Bit depth                      : 8 bits
Scan type                      : Progressive
Bits/(Pixel*Frame)             : 0.362
Stream size                    : 646 MiB (98%)
Default                        : Yes
Forced                         : No
Color range                    : Limited
Color primaries                : BT.709
Transfer characteristics       : BT.709
Matrix coefficients            : BT.709


Audio
ID                             : 2
Format                         : E-AC-3
Format/Info                    : Enhanced AC-3
Commercial name                : Dolby Digital Plus
Codec ID                       : A_EAC3
Bit rate mode                  : Constant
Bit rate                       : 224 kb/s
Channel(s)                     : 2 channels
Channel layout                 : L R
Sampling rate                  : 48.0 kHz
Frame rate                     : 31.250 FPS (1536 SPF)
Compression mode               : Lossy
Delay relative to video        : 8 ms
Stream size                    : 10.2 MiB (2%)
Title                          : Hindi
Language                       : Hindi
Service kind                   : Complete Main
Default                        : No
Forced                         : No


:ss:













 :download:



Share this topic on FacebookShare this topic on GoogleShare this topic on MySpaceShare this topic on TwitterShare this topic on Yahoo



Thanks given by:


July 11, 2019, 10:32:29 PM
Reply #1
  • Hot Member
  • ***
  • Thank You: 0
  • Reputation: 8
  • Activity:
    21%
  • Country: au
  • Posts: 536
  • Topics: 0
  • Join Date: Oct 2017
  • ShareSpark Member

Tags:
 

Related Topics





Back to top