+ ShareSpark.net »  :::: Bollywood Zone » Regional Movies » Regional Movies in Hindi
|-  Bekhauff Apradhi (2019 - Dandupalya 3 - South Hindi Dubbed) - 720p - DTHRip[x264 - AAC3(5.1Ch)] -


Bekhauff Apradhi (2019 - Dandupalya 3 - South Hindi Dubbed) - 720p - DTHRip[x264 - AAC3(5.1Ch)] -

0 Members and 1 Guest are viewing this topic.

July 12, 2019, 02:55:04 PM
  • Semi Newbie
  • **
  • Topic Author
  • Thank You: 20
  • Reputation: 4
  • Activity:
    7.6%
  • Country: bd
  • Posts: 49
  • Topics: 48
  • Join Date: Dec 2017
  • ShareSpark Member
          Bekhauff Apradhi (2019 - Dandupalya 3 - South Hindi
 Dubbed) - 720p - DTHRip[x264 - AAC3(5.1Ch)] - 1.4 GB   
 





Code: [Select]
General
Format                                   : Matroska
Format version                           : Version 4
File size                                : 1.00 GiB

Video
ID                                       : 1
Format                                   : AVC
Format/Info                              : Advanced Video Codec
Format profile                           : [email protected]
Format settings                          : CABAC / 4 Ref Frames
Format settings, CABAC                   : Yes
Format settings, Reference frames        : 4 frames
Codec ID                                 : V_MPEG4/ISO/AVC
Duration                                 : 1 h 49 min
Bit rate                                 : 1 186 kb/s
Width                                    : 1 280 pixels
Height                                   : 544 pixels
Display aspect ratio                     : 2.35:1
Frame rate mode                          : Constant
Frame rate                               : 25.000 FPS
Color space                              : YUV
Chroma subsampling                       : 4:2:0
Bit depth                                : 8 bits
Scan type                                : Progressive
Bits/(Pixel*Frame)                       : 0.068
Stream size                              : 926 MiB (90%)

Audio
ID                                       : 2
Format                                   : AAC LC SBR
Commercial name                          : HE-AAC
Format settings                          : Explicit
Codec ID                                 : A_AAC-2
Duration                                 : 1 h 49 min
Bit rate                                 : 128 kb/s
Channel(s)                               : 6 channels
Channel layout                           : C L R Ls Rs LFE
Sampling rate                            : 48.0 kHz
Stream size                              : 99.7 MiB (10%)

   Thumbnail   








Share this topic on FacebookShare this topic on GoogleShare this topic on MySpaceShare this topic on TwitterShare this topic on Yahoo

« Last Edit: July 12, 2019, 04:31:36 PM by Pherarim »


Thanks given by:


July 12, 2019, 04:05:47 PM
Reply #1
  • Hot Member
  • ***
  • Thank You: 0
  • Reputation: 8
  • Activity:
    23.6%
  • Country: au
  • Posts: 570
  • Topics: 0
  • Join Date: Oct 2017
  • ShareSpark Member

 

Related Topics





Back to top