+ ShareSpark.net »  :::: Bollywood Zone » Regional Movies » Regional Movies in Hindi
|- Hum Hain Khiladi (2019 - Bheemili Kabaddi Jattu South Hindi Dubbed) - 720p - DTH Rip[x264 - AC3(5.1


Hum Hain Khiladi (2019 - Bheemili Kabaddi Jattu South Hindi Dubbed) - 720p - DTH Rip[x264 - AC3(5.1

0 Members and 1 Guest are viewing this topic.

July 10, 2019, 11:16:50 AM
  • Semi Newbie
  • **
  • Topic Author
  • Thank You: 15
  • Reputation: 4
  • Activity:
    5.4%
  • Country: bd
  • Posts: 38
  • Topics: 38
  • Join Date: Dec 2017
  • ShareSpark Member
          Hum Hain Khiladi (2019 - Bheemili Kabaddi Jattu
South Hindi Dubbed) - 720p
- DTH Rip[x264 - AC3(5.1Ch)] - 1.4   
 




Code: [Select]
General
Format                                   : Matroska
Format version                           : Version 4
File size                                : 1.40 GiB
Duration                                 : 1 h 55 min

Video
ID                                       : 1
Format                                   : AVC
Format/Info                              : Advanced Video Codec
Format profile                           : [email protected]
Format settings                          : CABAC / 4 Ref Frames
Format settings, CABAC                   : Yes
Format settings, Reference frames        : 4 frames
Codec ID                                 : V_MPEG4/ISO/AVC
Duration                                 : 1 h 55 min
Bit rate                                 : 1 544 kb/s
Width                                    : 1 280 pixels
Height                                   : 544 pixels
Display aspect ratio                     : 2.35:1
Frame rate mode                          : Constant
Frame rate                               : 25.000 FPS
Color space                              : YUV
Chroma subsampling                       : 4:2:0
Bit depth                                : 8 bits
Scan type                                : Progressive
Bits/(Pixel*Frame)                       : 0.089
Stream size                              : 1.25 GiB (89%)

Audio
ID                                       : 2
Format                                   : AC-3
Format/Info                              : Audio Coding 3
Commercial name                          : Dolby Digital
Codec ID                                 : A_AC3
Duration                                 : 1 h 55 min
Bit rate mode                            : Constant
Bit rate                                 : 192 kb/s
Channel(s)                               : 6 channels
Channel layout                           : L R C LFE Ls Rs
Sampling rate                            : 48.0 kHz
Stream size                              : 159 MiB (11%)
Language                                 : Hindi

   Thumbnail   







Share this topic on FacebookShare this topic on GoogleShare this topic on MySpaceShare this topic on TwitterShare this topic on Yahoo



Thanks given by:


July 11, 2019, 11:55:40 PM
Reply #1
  • Hot Member
  • ***
  • Thank You: 0
  • Reputation: 8
  • Activity:
    21%
  • Country: au
  • Posts: 536
  • Topics: 0
  • Join Date: Oct 2017
  • ShareSpark Member

Tags: Sport 
 

Related Topics





Back to top