+ ShareSpark.net »  :::: Bollywood Zone » Regional Movies » Regional Movies in Hindi
|- Gabbar Sher (2019 - Samar South Hindi Dubbed) - 720p - HDRip[x264 - AC3(5.1Ch)] - 1.4 GB


Gabbar Sher (2019 - Samar South Hindi Dubbed) - 720p - HDRip[x264 - AC3(5.1Ch)] - 1.4 GB

0 Members and 1 Guest are viewing this topic.

July 10, 2019, 06:03:29 PM
  • Semi Newbie
  • **
  • Topic Author
  • Thank You: 20
  • Reputation: 4
  • Activity:
    7.6%
  • Country: bd
  • Posts: 49
  • Topics: 48
  • Join Date: Dec 2017
  • ShareSpark Member
     Gabbar Sher (2019 - Samar South Hindi Dubbed) -
720p - HDRip[x264 - AC3(5.1Ch)] - 1.4 GB 
 




Code: [Select]
General
Format                                   : Matroska
Format version                           : Version 4
File size                                : 1.40 GiB
Duration                                 : 2 h 31 min

Video
ID                                       : 1
Format                                   : AVC
Format/Info                              : Advanced Video Codec
Format profile                           : [email protected]
Format settings                          : CABAC / 4 Ref Frames
Format settings, CABAC                   : Yes
Format settings, Reference frames        : 4 frames
Codec ID                                 : V_MPEG4/ISO/AVC
Duration                                 : 2 h 31 min
Bit rate                                 : 1 135 kb/s
Width                                    : 1 280 pixels
Height                                   : 544 pixels
Display aspect ratio                     : 2.35:1
Frame rate mode                          : Constant
Frame rate                               : 25.000 FPS
Color space                              : YUV
Chroma subsampling                       : 4:2:0
Bit depth                                : 8 bits
Scan type                                : Progressive
Bits/(Pixel*Frame)                       : 0.065
Stream size                              : 1.20 GiB (85%)

Audio
ID                                       : 2
Format                                   : AC-3
Format/Info                              : Audio Coding 3
Commercial name                          : Dolby Digital
Codec ID                                 : A_AC3
Duration                                 : 2 h 31 min
Bit rate mode                            : Constant
Bit rate                                 : 192 kb/s
Channel(s)                               : 6 channels
Channel layout                           : L R C LFE Ls Rs
Sampling rate                            : 48.0 kHz
Stream size                              : 207 MiB (14%)
Language                                 : Hindi

   Thumbnail   







Share this topic on FacebookShare this topic on GoogleShare this topic on MySpaceShare this topic on TwitterShare this topic on Yahoo



Thanks given by:


July 11, 2019, 10:59:38 PM
Reply #1
  • Hot Member
  • ***
  • Thank You: 0
  • Reputation: 8
  • Activity:
    23.6%
  • Country: au
  • Posts: 570
  • Topics: 0
  • Join Date: Oct 2017
  • ShareSpark Member

Tags:
 

Related Topics





Back to top