+ ShareSpark.net »  :::: Bollywood Zone » Bollywood Movies (Pre Releases)
|- Super 30 (2019) Hindi Movie - 720p - Pre DVDRip[x264 - AAC3(5.1Ch)] - 1.4 GB


  • Super 30 (2019) Hindi Movie - 720p - Pre DVDRip[x264 - AAC3(5.1Ch)] - 1.4 GB 4 1
Currently:  

Super 30 (2019) Hindi Movie - 720p - Pre DVDRip[x264 - AAC3(5.1Ch)] - 1.4 GB

0 Members and 1 Guest are viewing this topic.

July 14, 2019, 03:18:40 AM
  • Semi Newbie
  • **
  • Topic Author
  • Thank You: 21
  • Reputation: 4
  • Activity:
    7.6%
  • Country: bd
  • Posts: 34
  • Topics: 33
  • Join Date: Dec 2017
  • ShareSpark Member
          Super 30 (2019) Hindi Movie - 720p - Pre
DVDRip[x264 - AAC3(5.1Ch)] - 1.4 GB   
 





Code: [Select]
General
Format                                   : Matroska
Format version                           : Version 4
File size                                : 1.40 GiB
Duration                                 : 2 h 49 min

Video
ID                                       : 1
Format                                   : AVC
Format/Info                              : Advanced Video Codec
Format profile                           : [email protected]
Format settings                          : CABAC / 4 Ref Frames
Format settings, CABAC                   : Yes
Format settings, Reference frames        : 4 frames
Codec ID                                 : V_MPEG4/ISO/AVC
Duration                                 : 2 h 49 min
Bit rate                                 : 1 053 kb/s
Width                                    : 1 280 pixels
Height                                   : 544 pixels
Display aspect ratio                     : 2.35:1
Frame rate mode                          : Constant
Frame rate                               : 25.000 FPS
Color space                              : YUV
Chroma subsampling                       : 4:2:0
Bit depth                                : 8 bits
Scan type                                : Progressive
Bits/(Pixel*Frame)                       : 0.060
Stream size                              : 1.25 GiB (89%)

Audio
ID                                       : 2
Format                                   : AAC LC SBR
Commercial name                          : HE-AAC
Format settings                          : Explicit
Codec ID                                 : A_AAC-2
Duration                                 : 2 h 49 min
Bit rate                                 : 128 kb/s
Channel(s)                               : 6 channels
Channel layout                           : C L R Ls Rs LFE
Sampling rate                            : 48.0 kHz
Stream size                              : 155 MiB (11%)























Share this topic on FacebookShare this topic on GoogleShare this topic on MySpaceShare this topic on TwitterShare this topic on Yahoo

« Last Edit: July 25, 2019, 08:38:52 PM by Pherarim »



July 24, 2019, 09:14:46 PM
Reply #1
  • Semi Newbie
  • **
  • Thank You: 0
  • Reputation: 0
  • Activity:
    0.2%
  • Country: in
  • Posts: 8
  • Topics: 0
  • Join Date: Dec 2017
  • ShareSpark Member

July 25, 2019, 08:39:39 PM
Reply #2
  • Semi Newbie
  • **
  • Topic Author
  • Thank You: 21
  • Reputation: 4
  • Activity:
    7.6%
  • Country: bd
  • Posts: 34
  • Topics: 33
  • Join Date: Dec 2017
  • ShareSpark Member

 

Related Topics





Back to top