+ ShareSpark.net »  :::: Dubbed Zone (Dubbed English in Hindi) » English Movies Dubbed in Hindi » High Resolution Movies
|- Ghost Rider DuoLogy (2007-2011) 1080p BluRay x264 Dual Audio [Hindi-English] DD5.1 - ESUBS ~ Ranvija


Ghost Rider DuoLogy (2007-2011) 1080p BluRay x264 Dual Audio [Hindi-English] DD5.1 - ESUBS ~ Ranvija

0 Members and 1 Guest are viewing this topic.

August 13, 2019, 08:49:39 AM
  • Legend
  • Legend Member
  • ***
  • Topic Author
  • Thank You: 14120
  • Reputation: 2878
  • Activity:
    58%
  • Country: in
  • Posts: 6154
  • Topics: 5036
  • Join Date: Jan 2014
  • ıllıllı ѕмoĸιng ιѕ good ғor нealтн ıllıllı :)








Ghost Rider DuoLogy (2007-2011) 1080p BluRay x264 Dual Audio [Hindi-English] DD5.1 - ESUBS ~ Ranvijay [Team SSX]

Thanks To Hammer For Hindi Audio



Ghost Rider (2007) 1080p BluRay x264 Dual Audio [Hindi DD5.1 - English DD5.1] - ESUBS ~ Ranvijay

Quote
General
Format                                   : Matroska
Format version                           : Version 4 / Version 2
File size                                : 4.17 GiB
Duration                                 : 2 h 3 min
Overall bit rate                         : 4 839 kb/s
Movie name                               : Ghost Rider (2007) 1080p BluRay x264 Dual Audio [Hindi DD5.1 - English DD5.1] - ESUBS ~ Ranvijay

Video
ID                                       : 1
Format                                   : AVC
Format/Info                              : Advanced Video Codec
Format profile                           : [email protected]
Duration                                 : 2 h 3 min
Bit rate                                 : 4 000 kb/s
Width                                    : 1 920 pixels
Height                                   : 800 pixels
Display aspect ratio                     : 2.40:1
Frame rate mode                          : Constant
Frame rate                               : 23.976 (24000/1001) FPS
Color space                              : YUV
Chroma subsampling                       : 4:2:0
Bit depth                                : 8 bits
Scan type                                : Progressive
Bits/(Pixel*Frame)                       : 0.109
Stream size                              : 3.44 GiB (82%)
Title                                    : ~Ranvijay~

Audio #1
ID                                       : 2
Format                                   : AC-3
Format/Info                              : Audio Coding 3
Codec ID                                 : A_AC3
Duration                                 : 2 h 3 min
Bit rate mode                            : Constant
Bit rate                                 : 448 kb/s
Channel(s)                               : 6 channels
Channel positions                        : Front: L C R, Side: L R, LFE
Sampling rate                            : 48.0 kHz
Frame rate                               : 31.250 FPS (1536 SPF)
Bit depth                                : 16 bits
Compression mode                         : Lossy
Stream size                              : 395 MiB (9%)
Title                                    : ~Ranvijay~
Language                                 : Hindi
Service kind                             : Complete Main
Default                                  : Yes
Forced                                   : Yes

Audio #2
ID                                       : 3
Format                                   : AC-3
Format/Info                              : Audio Coding 3
Codec ID                                 : A_AC3
Duration                                 : 2 h 2 min
Bit rate mode                            : Constant
Bit rate                                 : 384 kb/s
Channel(s)                               : 6 channels
Channel positions                        : Front: L C R, Side: L R, LFE
Sampling rate                            : 48.0 kHz
Frame rate                               : 31.250 FPS (1536 SPF)
Bit depth                                : 16 bits
Compression mode                         : Lossy
Stream size                              : 337 MiB (8%)
Title                                    : ~Ranvijay~
Language                                 : English
Service kind                             : Complete Main
Default                                  : No
Forced                                   : No

Text #1
ID                                       : 4
Format                                   : PGS
Muxing mode                              : zlib
Codec ID                                 : S_HDMV/PGS
Codec ID/Info                            : Picture based subtitle format used on BDs/HD-DVDs
Duration                                 : 1 h 54 min
Bit rate                                 : 23.0 kb/s
Count of elements                        : 2142
Stream size                              : 18.9 MiB (0%)
Title                                    : ~Ranvijay~
Language                                 : English
Default                                  : Yes
Forced                                   : Yes

Text #2
ID                                       : 5
Format                                   : PGS
Muxing mode                              : zlib
Codec ID                                 : S_HDMV/PGS
Codec ID/Info                            : Picture based subtitle format used on BDs/HD-DVDs
Duration                                 : 1 h 59 min
Bit rate                                 : 19.7 kb/s
Count of elements                        : 2970
Stream size                              : 16.9 MiB (0%)
Title                                    : ~Ranvijay~
Language                                 : English
Default                                  : No
Forced                                   : No

Menu
00:00:00.000                             : :Chapter 01
00:09:21.394                             : :Chapter 02
00:18:28.690                             : :Chapter 03
00:21:21.571                             : :Chapter 04
00:28:40.135                             : :Chapter 05
00:35:54.110                             : :Chapter 06
00:42:02.102                             : :Chapter 07
00:47:37.646                             : :Chapter 08
00:56:00.607                             : :Chapter 09
01:05:50.029                             : :Chapter 10
01:12:49.198                             : :Chapter 11
01:18:28.286                             : :Chapter 12
01:25:15.235                             : :Chapter 13
01:37:06.111                             : :Chapter 14
01:45:45.839                             : :Chapter 15
01:49:38.780                             : :Chapter 16









Ghost Rider - Spirit of Vengeance (2011) 1080p BluRay x264 Dual Audio[Hindi DD5.1 - English DD5.1] - ESUBS ~ Ranvijay

Quote
General
Format                                   : Matroska
Format version                           : Version 4 / Version 2
File size                                : 3.37 GiB
Duration                                 : 1 h 35 min
Overall bit rate                         : 5 047 kb/s
Movie name                               : Ghost Rider - Spirit of Vengeance (2011) 1080p BluRay x264 Dual Audio[Hindi DD5.1 - English DD5.1] - ESUBS ~ Ranvijay

Video
ID                                       : 1
Format                                   : AVC
Format/Info                              : Advanced Video Codec
Duration                                 : 1 h 35 min
Bit rate                                 : 4 000 kb/s
Width                                    : 1 920 pixels
Height                                   : 800 pixels
Display aspect ratio                     : 2.40:1
Frame rate mode                          : Constant
Frame rate                               : 23.976 (24000/1001) FPS
Color space                              : YUV
Chroma subsampling                       : 4:2:0
Bit depth                                : 8 bits
Scan type                                : Progressive
Bits/(Pixel*Frame)                       : 0.109
Stream size                              : 2.67 GiB (79%)
Title                                    : ~Ranvijay~

Audio #1
ID                                       : 2
Format                                   : AC-3
Format/Info                              : Audio Coding 3
Codec ID                                 : A_AC3
Duration                                 : 1 h 35 min
Bit rate mode                            : Constant
Bit rate                                 : 640 kb/s
Channel(s)                               : 6 channels
Channel positions                        : Front: L C R, Side: L R, LFE
Sampling rate                            : 48.0 kHz
Frame rate                               : 31.250 FPS (1536 SPF)
Bit depth                                : 16 bits
Compression mode                         : Lossy
Delay relative to video                  : 28 ms
Stream size                              : 437 MiB (13%)
Title                                    : ~Ranvijay~
Language                                 : Hindi
Service kind                             : Complete Main
Default                                  : Yes
Forced                                   : Yes

Audio #2
ID                                       : 3
Format                                   : AC-3
Format/Info                              : Audio Coding 3
Codec ID                                 : A_AC3
Duration                                 : 1 h 35 min
Bit rate mode                            : Constant
Bit rate                                 : 384 kb/s
Channel(s)                               : 6 channels
Channel positions                        : Front: L C R, Side: L R, LFE
Sampling rate                            : 48.0 kHz
Frame rate                               : 31.250 FPS (1536 SPF)
Bit depth                                : 16 bits
Compression mode                         : Lossy
Stream size                              : 262 MiB (8%)
Title                                    : ~Ranvijay~
Language                                 : English
Service kind                             : Complete Main
Default                                  : No
Forced                                   : No

Text #1
ID                                       : 4
Format                                   : PGS
Muxing mode                              : zlib
Codec ID                                 : S_HDMV/PGS
Codec ID/Info                            : Picture based subtitle format used on BDs/HD-DVDs
Duration                                 : 1 h 27 min
Bit rate                                 : 18.4 kb/s
Count of elements                        : 1618
Stream size                              : 11.5 MiB (0%)
Title                                    : ~Ranvijay~
Language                                 : English
Default                                  : Yes
Forced                                   : Yes

Text #2
ID                                       : 5
Format                                   : PGS
Muxing mode                              : zlib
Codec ID                                 : S_HDMV/PGS
Codec ID/Info                            : Picture based subtitle format used on BDs/HD-DVDs
Duration                                 : 1 h 27 min
Bit rate                                 : 18.4 kb/s
Count of elements                        : 1618
Stream size                              : 11.5 MiB (0%)
Title                                    : ~Ranvijay~
Language                                 : English
Default                                  : No
Forced                                   : No

Text #3
ID                                       : 6
Format                                   : PGS
Muxing mode                              : zlib
Codec ID                                 : S_HDMV/PGS
Codec ID/Info                            : Picture based subtitle format used on BDs/HD-DVDs
Duration                                 : 1 h 31 min
Bit rate                                 : 16.5 kb/s
Count of elements                        : 2286
Stream size                              : 10.8 MiB (0%)
Title                                    : ~Ranvijay~
Language                                 : English
Default                                  : No
Forced                                   : No

Menu
00:00:00.000                             : :Chapter 01
00:06:34.060                             : :Chapter 02
00:11:54.213                             : :Chapter 03
00:15:15.331                             : :Chapter 04
00:19:09.273                             : :Chapter 05
00:25:47.587                             : :Chapter 06
00:28:22.617                             : :Chapter 07
00:35:01.516                             : :Chapter 08
00:43:24.018                             : :Chapter 09
00:51:51.066                             : :Chapter 10
01:00:00.304                             : :Chapter 11
01:03:59.335                             : :Chapter 12
01:11:04.760                             : :Chapter 13
01:14:01.103                             : :Chapter 14
01:20:02.130                             : :Chapter 15
01:25:29.207                             : :Chapter 16













:download:

Quote


File Leeched & Uploaded From




Don't walk as you are king, walk as you don't care who the king is....!!
Never argue with an idiot. They drag you down to their level and then beat you with experience?

Share this topic on FacebookShare this topic on GoogleShare this topic on MySpaceShare this topic on TwitterShare this topic on Yahoo




Don't walk as you are king, walk as you don't care who the king is....!!

Tags:
 

Related Topics





Back to top