+ ShareSpark.net »  :::: Bollywood Zone » Indian PC Videos
|- Armaan (2003) Hindi 1080p WebHD AVC DD Plus 2.0 {Music Video} ESub - DusIcTv


Armaan (2003) Hindi 1080p WebHD AVC DD Plus 2.0 {Music Video} ESub - DusIcTv

0 Members and 1 Guest are viewing this topic.

August 13, 2019, 10:21:45 AM
  • Junior Moderator
  • Legend Member
  • ***
  • Topic Author
  • Thank You: 7273
  • Reputation: 1490
  • Activity:
    97.8%
  • Country: np
  • Posts: 3061
  • Topics: 2386
  • Join Date: Jul 2016
  • *Love Forever*
Armaan (2003) Hindi 1080p WebHD AVC DD Plus 2.0 {Music Video} ESub - DusIcTv






 :info:

Format                         : Matroska
Format version                 : Version 4
File size                      : 1.52 GB
Overall bit rate mode          : Variable
Overall bit rate               : 13.6 Mb/s
Writing application  : mkvmerge v32.0.0 ('Astral Progressions') 32-bit
Writing library : libebml v1.3.7 + libmatroska v1.5.0


Video
ID                             : 1
Format                         : AVC
Format/Info                    : Advanced Video Codec
Format profile                 : [email protected]
Format settings                : CABAC / 4 Ref Frames
Format settings, CABAC         : Yes
Format settings, ReFrames      : 4 frames
Codec ID                       : V_MPEG4/ISO/AVC
Bit rate mode                  : Variable
Bit rate                       : 13.4 Mb/s
Maximum bit rate               : 15.0 Mb/s
Width                          : 1 920 pixels
Height                         : 800 pixels
Display aspect ratio           : 2.2:1
Original display aspect ratio  : 2.40:1
Frame rate mode                : Constant
Frame rate                     : 25.000 FPS
Color space                    : YUV
Chroma subsampling             : 4:2:0
Bit depth                      : 8 bits
Scan type                      : Progressive
Bits/(Pixel*Frame)             : 0.348
Stream size                    : 397 MiB (98%)
Title                          : DusIcTv
Default                        : Yes
Forced                         : No
Color range                    : Limited
Color primaries                : BT.709
Transfer characteristics       : BT.709
Matrix coefficients            : BT.709


Audio
ID                             : 2
Format                         : E-AC-3
Format/Info                    : Enhanced AC-3
Commercial name                : Dolby Digital Plus
Codec ID                       : A_EAC3
Bit rate mode                  : Constant
Bit rate                       : 224 kb/s
Channel(s)                     : 2 channels
Channel layout                 : L R
Sampling rate                  : 48.0 kHz
Frame rate                     : 31.250 FPS (1536 SPF)
Compression mode               : Lossy
Stream size                    : 6.65 MiB (2%)
Title                          : DusIcTv
Language                       : Hindi
Service kind                   : Complete Main
Default                        : No
Forced                         : No


Text
ID                             : 3
Format                         : UTF-8
Codec ID                       : S_TEXT/UTF8
Codec ID/Info                  : UTF-8 Plain Text
Bit rate                       : 32 b/s
Count of elements              : 35
Stream size                    : 980 Bytes (0%)
Title                          : English
Language                       : English
Default                        : No
Forced                         : No




 :ss:













 :download:

Share this topic on FacebookShare this topic on GoogleShare this topic on MySpaceShare this topic on TwitterShare this topic on Yahoo




Tags:
 

Related Topics





Back to top