+ ShareSpark.net »  :::: Dubbed Zone (Dubbed English in Hindi) » English Movies Dubbed in Hindi
|- V For Vendetta 2005 x264 720p Esub BluRay 6.0 Dual Audio English Hindi GOPISAHI


Amazon Pantry Offer

V For Vendetta 2005 x264 720p Esub BluRay 6.0 Dual Audio English Hindi GOPISAHI

0 Members and 1 Guest are viewing this topic.

February 20, 2019, 04:17:09 PM
  • ***************
  • Conqueror
  • Legend Member
  • *****
  • Topic Author
  • Thank You: 1995
  • Reputation: 569
  • Activity:
    100%
  • Country: pk
  • Posts: 2373
  • Topics: 1629
  • Join Date: Mar 2015
  • =$ Success Never Ends $=
V For Vendetta 2005 x264 720p Esub BluRay 6.0 Dual Audio English Hindi GOPISAHI








Format : Matroska
Format version : Version 4 / Version 2
File size : 1.21 GiB
Duration : 2 h 12 min
Overall bit rate : 1 304 kb/s
Movie name : V for Vendetta 2005 GOPISAHI

Video
ID : 1
Format : AVC
Format/Info : Advanced Video Codec
Format profile : [email protected]
Format settings : CABAC / 16 Ref Frames
Format settings, CABAC : Yes
Format settings, ReFrames : 16 frames
Codec ID : V_MPEG4/ISO/AVC
Duration : 2 h 12 min
Bit rate : 899 kb/s
Width : 1 280 pixels
Height : 528 pixels
Display aspect ratio : 2.40:1
Frame rate mode : Constant
Frame rate : 23.976 (24000/1001) FPS
Color space : YUV
Chroma subsampling : 4:2:0
Bit depth : 8 bits
Scan type : Progressive
Bits/(Pixel*Frame) : 0.055
Stream size : 852 MiB (69%)
Title : GOPISAHI
Writing library : x264 core 157 r2935 545de2f

Audio #1
ID : 2
Format : AAC
Format/Info : Advanced Audio Codec
Format profile : LC
Codec ID : A_AAC-2
Duration : 2 h 12 min
Bit rate : 192 kb/s
Channel(s) : 6 channels
Channel positions : Front: L C R, Side: C, Back: L R
Sampling rate : 48.0 kHz
Frame rate : 46.875 FPS (1024 SPF)
Compression mode : Lossy
Delay relative to video : -21 ms
Stream size : 183 MiB (15%)
Title : GOPISAHI
Language : Hindi
Default : Yes
Forced : No

Audio #2
ID : 3
Format : AAC
Format/Info : Advanced Audio Codec
Format profile : LC
Codec ID : A_AAC-2
Duration : 2 h 12 min
Bit rate : 192 kb/s
Channel(s) : 6 channels
Channel positions : Front: L C R, Side: C, Back: L R
Sampling rate : 48.0 kHz
Frame rate : 46.875 FPS (1024 SPF)
Compression mode : Lossy
Delay relative to video : -21 ms
Stream size : 182 MiB (15%)
Title : GOPISAHI
Language : English
Default : No
Forced : No

Text
ID : 4
Format : PGS
Muxing mode : zlib
Codec ID : S_HDMV/PGS
Codec ID/Info : Picture based subtitle format used on BDs/HD-DVDs
Duration : 2 h 11 min
Bit rate : 39.6 kb/s
Count of elements : 3644
Stream size : 37.3 MiB (3%)
Title : GOPISAHI
Language : English

Menu
00:00:00.000 : en:Remember, Remember
00:02:24.478 : en:Man in a Mask
00:09:08.006 : en:Rooftop Concert
00:11:00.410 : en:Lead on the Girl
00:16:27.153 : en:VTV
00:21:56.816 : en:Response Time
00:25:01.542 : en:Captive for a Year
00:30:09.891 : en:Symbolic Acts
00:35:37.510 : en:Prothero's Past
00:40:37.518 : en:Afraid All the Time
00:43:14.342 : en:No Mercy for the Bishop
00:48:02.713 : en:Creedy's Threat
00:49:41.061 : en:Mystery Woman
00:54:11.373 : en:Bedside Manners
00:56:39.688 : en:Man From Room V
01:00:31.545 : en:What If?
01:04:47.133 : en:Gotcha
01:09:41.302 : en:Process Her
01:12:07.740 : en:Valerie's Autobiography
01:18:49.975 : en:Ready to Die
01:21:13.160 : en:God is in the Rain
01:26:01.782 : en:Valerie's Legacy
01:29:20.939 : en:Can You Believe This?
01:32:08.481 : en:Pathogen Path to Power
01:36:21.359 : en:A Man As Smart
01:39:28.504 : en:Perfect Pattern
01:44:17.626 : en:Revolution Eve Dance
01:48:50.524 : en:End of the Tunnel
01:52:03.842 : en:Swift Justice
01:53:57.706 : en:V's Turn
01:57:51.648 : en:Gift of Love
01:59:35.418 : en:All of Us
02:04:38.471 : en:End Credits





 :ss:












 :download:










Share this topic on FacebookShare this topic on GoogleShare this topic on MySpaceShare this topic on TwitterShare this topic on Yahoo




Tags:
 

Related Topics





Back to top