+ ShareSpark.net »  :::: Dubbed Zone (Dubbed English in Hindi) » English Movies Dubbed in Hindi
|- The Predator (2018) 720p BluRay x264 Dual Audio [Hindi - English] DD5.1 - MSUBS ~ Ranvijay


Amazon Pantry Offer

The Predator (2018) 720p BluRay x264 Dual Audio [Hindi - English] DD5.1 - MSUBS ~ Ranvijay

0 Members and 1 Guest are viewing this topic.

December 13, 2018, 01:20:41 PM
  • Global Moderator
  • Legend Member
  • *****
  • Topic Author
  • Thank You: 11281
  • Reputation: 2263
  • Activity:
    100%
  • Country: in
  • Posts: 5482
  • Topics: 4525
  • Join Date: Jan 2014
  • ıllıllı ѕмoĸιng ιѕ good ғor нealтн ıllıllı :)






The Predator (2018) 720p BluRay x264 Dual Audio [Hindi - English] DD5.1 - MSUBS ~ Ranvijay

Buy RDP Online



Quote

Format                                   : Matroska
Format version                           : Version 4 / Version 2
File size                                : 1.49 GiB
Duration                                 : 1 h 46 min
Overall bit rate                         : 1 990 kb/s
Movie name                               : The Predator (2018) 720p BluRay x264 Dual Audio [Hindi - English] DD5.1 - MSUBS ~ Ranvijay

Video
ID                                       : 1
Format                                   : AVC
Format/Info                              : Advanced Video Codec
Duration                                 : 1 h 46 min
Bit rate                                 : 1 500 kb/s
Width                                    : 1 280 pixels
Height                                   : 536 pixels
Display aspect ratio                     : 2.40:1
Frame rate mode                          : Constant
Frame rate                               : 23.976 (24000/1001) FPS
Color space                              : YUV
Chroma subsampling                       : 4:2:0
Bit depth                                : 8 bits
Scan type                                : Progressive
Bits/(Pixel*Frame)                       : 0.091
Stream size                              : 1.12 GiB (75%)
Title                                    : ~Ranvijay~

Audio #1
ID                                       : 2
Format                                   : AC-3
Format/Info                              : Audio Coding 3
Codec ID                                 : A_AC3
Duration                                 : 1 h 46 min
Bit rate mode                            : Constant
Bit rate                                 : 224 kb/s
Channel(s)                               : 6 channels
Channel positions                        : Front: L C R, Side: L R, LFE
Sampling rate                            : 48.0 kHz
Frame rate                               : 31.250 FPS (1536 SPF)
Bit depth                                : 16 bits
Compression mode                         : Lossy
Stream size                              : 171 MiB (11%)
Title                                    : ~Ranvijay~
Language                                 : Hindi
Service kind                             : Complete Main
Default                                  : Yes
Forced                                   : Yes

Audio #2
ID                                       : 3
Format                                   : AC-3
Format/Info                              : Audio Coding 3
Codec ID                                 : A_AC3
Duration                                 : 1 h 46 min
Bit rate mode                            : Constant
Bit rate                                 : 224 kb/s
Channel(s)                               : 6 channels
Channel positions                        : Front: L C R, Side: L R, LFE
Sampling rate                            : 48.0 kHz
Frame rate                               : 31.250 FPS (1536 SPF)
Bit depth                                : 16 bits
Compression mode                         : Lossy
Stream size                              : 171 MiB (11%)
Title                                    : ~Ranvijay~
Language                                 : English
Service kind                             : Complete Main
Default                                  : No
Forced                                   : No

Text #1
ID                                       : 4
Format                                   : PGS
Muxing mode                              : zlib
Codec ID                                 : S_HDMV/PGS
Codec ID/Info                            : Picture based subtitle format used on BDs/HD-DVDs
Duration                                 : 1 h 37 min
Bit rate                                 : 54.0 kb/s
Count of elements                        : 2602
Stream size                              : 37.6 MiB (2%)
Title                                    : ~Ranvijay~
Language                                 : English
Default                                  : Yes
Forced                                   : Yes

Text #2
ID                                       : 5
Format                                   : PGS
Muxing mode                              : zlib
Codec ID                                 : S_HDMV/PGS
Codec ID/Info                            : Picture based subtitle format used on BDs/HD-DVDs
Duration                                 : 1 h 44 min
Bit rate                                 : 43.8 kb/s
Count of elements                        : 2562
Stream size                              : 32.7 MiB (2%)
Title                                    : ~Ranvijay~
Language                                 : Hindi
Default                                  : No
Forced                                   : No

Text #3
ID                                       : 6
Format                                   : UTF-8
Codec ID                                 : S_TEXT/UTF8
Codec ID/Info                            : UTF-8 Plain Text
Duration                                 : 2 s 461 ms
Bit rate                                 : 149 b/s
Count of elements                        : 1
Stream size                              : 46.0 Bytes (0%)
Title                                    : Forced
Language                                 : English
Default                                  : No
Forced                                   : No

Text #4
ID                                       : 7
Format                                   : UTF-8
Codec ID                                 : S_TEXT/UTF8
Codec ID/Info                            : UTF-8 Plain Text
Duration                                 : 1 h 37 min
Bit rate                                 : 49 b/s
Count of elements                        : 1364
Stream size                              : 35.6 KiB (0%)
Title                                    : Full
Language                                 : English
Default                                  : No
Forced                                   : No

Text #5
ID                                       : 8
Format                                   : UTF-8
Codec ID                                 : S_TEXT/UTF8
Codec ID/Info                            : UTF-8 Plain Text
Duration                                 : 1 h 38 min
Bit rate                                 : 59 b/s
Count of elements                        : 1705
Stream size                              : 42.9 KiB (0%)
Title                                    : SDH
Language                                 : English
Default                                  : No
Forced                                   : No

Text #6
ID                                       : 9
Format                                   : UTF-8
Codec ID                                 : S_TEXT/UTF8
Codec ID/Info                            : UTF-8 Plain Text
Duration                                 : 1 h 38 min
Bit rate                                 : 123 b/s
Count of elements                        : 1705
Stream size                              : 89.4 KiB (0%)
Title                                    : SDH-Colored
Language                                 : English
Default                                  : No
Forced                                   : No

Menu
00:00:00.000                             : en:00:00:00.000
00:02:00.704                             : en:00:02:00.704
00:08:32.929                             : en:00:08:32.929
00:09:45.335                             : en:00:09:45.335
00:13:47.660                             : en:00:13:47.660
00:16:09.177                             : en:00:16:09.177
00:17:36.430                             : en:00:17:36.430
00:20:21.470                             : en:00:20:21.470
00:25:01.959                             : en:00:25:01.959
00:27:36.280                             : en:00:27:36.280
00:31:10.077                             : en:00:31:10.077
00:36:23.348                             : en:00:36:23.348
00:38:00.653                             : en:00:38:00.653
00:39:42.547                             : en:00:39:42.547
00:44:34.714                             : en:00:44:34.714
00:49:15.911                             : en:00:49:15.911
00:53:18.612                             : en:00:53:18.612
00:58:34.511                             : en:00:58:34.511
00:59:58.512                             : en:00:59:58.512
01:03:16.292                             : en:01:03:16.292
01:06:36.826                             : en:01:06:36.826
01:09:51.020                             : en:01:09:51.020
01:12:26.634                             : en:01:12:26.634
01:15:55.634                             : en:01:15:55.634
01:18:52.686                             : en:01:18:52.686
01:21:24.630                             : en:01:21:24.630
01:23:08.942                             : en:01:23:08.942
01:27:08.807                             : en:01:27:08.807
01:30:55.241                             : en:01:30:55.241
01:32:14.821                             : en:01:32:14.821
01:35:08.411                             : en:01:35:08.411
01:40:00.203                             : en:01:40:00.203



















:download:

Quote


File Leeched & Uploaded From




Don't walk as you are king, walk as you don't care who the king is....!!
Never argue with an idiot. They drag you down to their level and then beat you with experience?

Share this topic on FacebookShare this topic on GoogleShare this topic on MySpaceShare this topic on TwitterShare this topic on Yahoo

« Last Edit: December 13, 2018, 01:34:48 PM by Rάήνίјάч1234 »



Don't walk as you are king, walk as you don't care who the king is....!!

Tags:
 

Related Topics





Back to top