+ ShareSpark.net »  :::: Dubbed Zone (Dubbed English in Hindi) » English Movies Dubbed in Hindi
|- Evil Dead (2013) 720p BluRay x264 Dual Audio [Hindi DD5.1 - Eng DD5.1] - Msubs ~ Ranvijay

Weekend Pay And Play 50% Off

Evil Dead (2013) 720p BluRay x264 Dual Audio [Hindi DD5.1 - Eng DD5.1] - Msubs ~ Ranvijay

0 Members and 1 Guest are viewing this topic.

September 11, 2018, 11:16:10 PM
  • Global Moderator
  • Legend Member
  • *****
  • Topic Author
  • Thank You: 9223
  • Reputation: 1926
  • Activity:
    100%
  • Country: in
  • Posts: 5021
  • Topics: 4147
  • Join Date: Jan 2014
  • ıllıllı ѕмoĸιng ιѕ good ғor нealтн ıllıllı :)






Evil Dead (2013) 720p BluRay x264 Dual Audio [Hindi DD5.1 - Eng DD5.1] - Msubs ~ Ranvijay


Thanks To Hammer For Hindi Audio

Buy RDP Online




Quote
General
Format                                   : Matroska
Format version                           : Version 4 / Version 2
File size                                : 2.90 GiB
Duration                                 : 1 h 31 min
Overall bit rate                         : 4 542 kb/s
Movie name                               : Evil Dead (2013) 720p BluRay x264 Dual Audio [Hindi DD5.1 - Eng DD5.1] - Msubs ~ Ranvijay

Video
ID                                       : 1
Format                                   : AVC
Format/Info                              : Advanced Video Codec
Duration                                 : 1 h 31 min
Bit rate                                 : 3 838 kb/s
Width                                    : 1 280 pixels
Height                                   : 536 pixels
Display aspect ratio                     : 2.40:1
Frame rate mode                          : Constant
Frame rate                               : 23.976 (24000/1001) FPS
Color space                              : YUV
Chroma subsampling                       : 4:2:0
Bit depth                                : 8 bits
Scan type                                : Progressive
Bits/(Pixel*Frame)                       : 0.233
Stream size                              : 2.45 GiB (85%)
Title                                    : ~Ranvijay~

Audio #1
ID                                       : 2
Format                                   : AC-3
Format/Info                              : Audio Coding 3
Codec ID                                 : A_AC3
Duration                                 : 1 h 31 min
Bit rate mode                            : Constant
Bit rate                                 : 448 kb/s
Channel(s)                               : 6 channels
Channel positions                        : Front: L C R, Side: L R, LFE
Sampling rate                            : 48.0 kHz
Frame rate                               : 31.250 FPS (1536 SPF)
Bit depth                                : 16 bits
Compression mode                         : Lossy
Delay relative to video                  : 20 ms
Stream size                              : 293 MiB (10%)
Title                                    : ~Ranvijay~
Language                                 : Hindi
Service kind                             : Complete Main
Default                                  : Yes
Forced                                   : Yes

Audio #2
ID                                       : 3
Format                                   : AC-3
Format/Info                              : Audio Coding 3
Codec ID                                 : A_AC3
Duration                                 : 1 h 31 min
Bit rate mode                            : Constant
Bit rate                                 : 224 kb/s
Channel(s)                               : 6 channels
Channel positions                        : Front: L C R, Side: L R, LFE
Sampling rate                            : 48.0 kHz
Frame rate                               : 31.250 FPS (1536 SPF)
Bit depth                                : 16 bits
Compression mode                         : Lossy
Stream size                              : 146 MiB (5%)
Title                                    : ~Ranvijay~
Service kind                             : Complete Main
Default                                  : No
Forced                                   : No

Text #1
ID                                       : 4
Format                                   : PGS
Muxing mode                              : zlib
Codec ID                                 : S_HDMV/PGS
Codec ID/Info                            : Picture based subtitle format used on BDs/HD-DVDs
Duration                                 : 1 h 29 min
Bit rate                                 : 16.5 kb/s
Count of elements                        : 1228
Stream size                              : 10.5 MiB (0%)
Title                                    : ~Ranvijay~
Language                                 : English
Default                                  : Yes
Forced                                   : Yes

Text #2
ID                                       : 5
Format                                   : PGS
Muxing mode                              : zlib
Codec ID                                 : S_HDMV/PGS
Codec ID/Info                            : Picture based subtitle format used on BDs/HD-DVDs
Duration                                 : 1 h 30 min
Bit rate                                 : 74.6 kb/s
Count of elements                        : 3276
Stream size                              : 48.2 MiB (2%)
Title                                    : ~Ranvijay~
Language                                 : English
Default                                  : No
Forced                                   : No

Text #3
ID                                       : 6
Format                                   : PGS
Muxing mode                              : zlib
Codec ID                                 : S_HDMV/PGS
Codec ID/Info                            : Picture based subtitle format used on BDs/HD-DVDs
Duration                                 : 1 h 29 min
Bit rate                                 : 12.8 kb/s
Count of elements                        : 1268
Stream size                              : 8.15 MiB (0%)
Title                                    : ~Ranvijay~
Language                                 : Hindi
Default                                  : No
Forced                                   : No

Text #4
ID                                       : 7
Format                                   : UTF-8
Codec ID                                 : S_TEXT/UTF8
Codec ID/Info                            : UTF-8 Plain Text
Duration                                 : 1 h 30 min
Bit rate                                 : 44 b/s
Count of elements                        : 874
Stream size                              : 29.1 KiB (0%)
Title                                    : SDH-COLORED
Language                                 : English
Default                                  : No
Forced                                   : No

Text #5
ID                                       : 8
Format                                   : UTF-8
Codec ID                                 : S_TEXT/UTF8
Codec ID/Info                            : UTF-8 Plain Text
Duration                                 : 1 h 29 min
Bit rate                                 : 24 b/s
Count of elements                        : 608
Stream size                              : 16.2 KiB (0%)
Title                                    : ~Ranvijay~
Language                                 : English
Default                                  : No
Forced                                   : No

Menu
00:00:00.000                             : en:Chapter 01
00:05:10.310                             : en:Chapter 02
00:09:46.085                             : en:Chapter 03
00:14:24.029                             : en:Chapter 04
00:18:34.029                             : en:Chapter 05
00:23:14.309                             : en:Chapter 06
00:30:38.044                             : en:Chapter 07
00:35:34.799                             : en:Chapter 08
00:40:36.475                             : en:Chapter 09
00:49:43.480                             : en:Chapter 10
00:55:24.237                             : en:Chapter 11
01:01:35.191                             : en:Chapter 12
01:08:35.778                             : en:Chapter 13
01:14:05.983                             : en:Chapter 14
01:17:24.973                             : en:Chapter 15
01:20:36.248                             : en:Chapter 16














:download:

Quote


File Leeched & Uploaded From




Don't walk as you are king, walk as you don't care who the king is....!!
Never argue with an idiot. They drag you down to their level and then beat you with experience?

Share this topic on FacebookShare this topic on GoogleShare this topic on MySpaceShare this topic on TwitterShare this topic on Yahoo




Don't walk as you are king, walk as you don't care who the king is....!!

Thanks given by:


September 21, 2018, 06:38:27 AM
Reply #1
  • Elite Forces
  • ****
  • Thank You: 228
  • Reputation: 97
  • Activity:
    8.6%
  • Country: sa
  • Posts: 1143
  • Topics: 116
  • Join Date: Jan 2017
  • ShareSpark Member

Tags:
 

Related Topics




Back to top