+ ShareSpark.net »  :::: Dubbed Zone (Dubbed English in Hindi) » English Movies Dubbed in Hindi » 3D Movies
|- Escape from Planet Earth 3D HSBS 1080p BRRip in Hindi {TheEmirsKrew}


Escape from Planet Earth 3D HSBS 1080p BRRip in Hindi {TheEmirsKrew}

0 Members and 1 Guest are viewing this topic.

December 05, 2013, 01:18:20 PM
  • Admin
  • Legend Member
  • ****
  • Topic Author
  • Thank You: 3444
  • Reputation: 1215
  • Activity:
    0%
  • Posts: 5861
  • Topics: 3331
  • Join Date: Apr 2012
  • No Tears For The Dead
  • Expertises:
  • All Rounder In Each Field
[Escape from Planet Earth HSBS 1080p BRRip in Hindi {TheEmirsKrew}








 :info:

Quote
General
Complete name :Escape from Planet Earth HSBS 1080p BRRip in Hindi {TheEmirsKrew}.mp4
Format : MPEG-4
Format profile : Base Media
Codec ID : isom
File size : 1.23 GiB
Duration : 1h 29mn
Overall bit rate mode : Variable
Overall bit rate : 1 980 Kbps
Movie name : Encoder:tahar279279
Genre : Children's
ContentType : Movie
Description : Escape from Planet Earth is a 2013 Canadian 3D computer animated comedy film produced by Rainmaker Entertainment, and directed by Cal Brunker. The film was released on February 15, 2013
Recorded date : June 4, 2013 (USA)
Encoded date : UTC 2013-11-30 06:42:47
Tagged date : UTC 2013-11-30 06:44:57
Cover : Yes
ContentRating : mpaa|PG|200|


Put Your 3D Tv Setting To L-R or R-L mode

Video Source: YIFY
ID : 1
Format : AVC
Format/Info : Advanced Video Codec
Format profile : [email protected]
Format settings, CABAC : Yes
Format settings, ReFrames : 5 frames
Codec ID : avc1
Codec ID/Info : Advanced Video Coding
Duration : 1h 29mn
Bit rate : 1 885 Kbps
Maximum bit rate : 10.3 Mbps
Width : 1 920 pixels
Height : 1 080 pixels
Display aspect ratio : 16:9
Frame rate mode : Constant
Frame rate : 23.976 fps
Color space : YUV
Chroma subsampling : 4:2:0
Bit depth : 8 bits
Scan type : Progressive
Bits/(Pixel*Frame) : 0.038
Stream size : 1.17 GiB (95%)
Writing library : x264 core 132 r2 76a5c3a
Encoding settings : cabac=1 / ref=5 / deblock=1:-1:-1 / analyse=0x3:0x133 / me=umh / subme=9 / psy=1 / psy_rd=1.00:0.15 / mixed_ref=1 / me_range=16 / chroma_me=1 / trellis=2 / 8x8dct=1 / cqm=0 / deadzone=21,11 / fast_pskip=1 / chroma_qp_offset=-3 / threads=18 / lookahead_threads=1 / sliced_threads=0 / nr=0 / decimate=1 / interlaced=0 / bluray_compat=0 / constrained_intra=0 / bframes=3 / b_pyramid=2 / b_adapt=2 / b_bias=0 / direct=3 / weightb=1 / open_gop=0 / weightp=2 / keyint=250 / keyint_min=23 / scenecut=40 / intra_refresh=0 / rc_lookahead=60 / rc=2pass / mbtree=1 / bitrate=1885 / ratetol=1.0 / qcomp=0.60 / qpmin=0 / qpmax=69 / qpstep=4 / cplxblur=20.0 / qblur=0.5 / ip_ratio=1.40 / aq=1:1.00
Language : English
Encoded date : UTC 2013-11-30 06:42:47
Tagged date : UTC 2013-11-30 06:43:36

Audio
ID : 2
Format : AAC
Format/Info : Advanced Audio Codec
Format profile : LC
Codec ID : 40
Duration : 1h 29mn
Source duration : 1h 29mn
Bit rate mode : Variable
Bit rate : 96.0 Kbps
Maximum bit rate : 217 Kbps
Channel count : 2 channels
Channel positions : Front: L R
Sampling rate : 48.0 KHz
Compression mode : Lossy
Stream size : 60.6 MiB (5%)
Source stream size : 60.6 MiB (5%)
Title : RANS CLUBZ&tahar279279
Language : Hindi+Urdu(Mix)
Encoded date : UTC 2013-11-30 06:37:56
Tagged date : UTC 2013-11-30 06:43:36

Audio is in English for few Seconds in 2 places in Movie so don't get disturbed that Why Audio is in English? Please watch movie then Comment about its audio Quality




 :ss:


























 :download:









Share this topic on FacebookShare this topic on GoogleShare this topic on MySpaceShare this topic on TwitterShare this topic on Yahoo



Thanks given by:


December 05, 2013, 04:37:22 PM
Reply #1
  • CoLoR BoMb
  • Admin
  • Legend Member
  • ****
  • Thank You: 1523
  • Reputation: 1011
  • Activity:
    0%
  • Country: cx
  • Posts: 8512
  • Topics: 2008
  • Join Date: Jul 2013
  • Oh! nO
  • Expertises:
  • Ebooks And Students Zone
  • English Album / SoundTrack / OST / Mp3 Songs
  • SMS/Jokes/Poems Zone

December 13, 2013, 06:44:32 AM
Reply #2
  • Semi Newbie
  • **
  • Thank You: 0
  • Reputation: 0
  • Activity:
    0%
  • Posts: 10
  • Topics: 4
  • Join Date: Oct 2013
  • ShareSpark Member
The Smurfs 2 (2013) 3D SBS hindi plz uploads

January 29, 2014, 06:58:26 AM
Reply #3
  • Semi Newbie
  • **
  • Thank You: 0
  • Reputation: 0
  • Activity:
    0%
  • Country: in
  • Posts: 28
  • Topics: 1
  • Join Date: Dec 2013
  • ShareSpark Member
friends plz tell me how to watch such 3d movie in pc in 3d.plz friends

Tags: 1080p 2012 hindi 
 

Related Topics





Back to top