+ ShareSpark.net »  :::: Bollywood Zone » Indian TV Shows
|- Zee Rishtey Awards 2011 Red Carpet 18th December [172 MB]


Zee Rishtey Awards 2011 Red Carpet 18th December [172 MB]

0 Members and 1 Guest are viewing this topic.

December 21, 2011, 11:12:10 PM
  • Head Admin
  • Legend Member
  • *****
  • Topic Author
  • Thank You: 1393
  • Reputation: 1065
  • Activity:
    1%
  • Posts: 5595
  • Topics: 1507
  • Join Date: Dec 2010
  • Expertises:
  • Tv Shows
Zee Rishtey Awards 2011 Red CArpet 18th Dec





          ==================================   
General
Complete name                    : D:\Files-2\dct tv\Zee Rishtey Awards 2011 Red CArpet 18th Dec.wmv
Format                           : Windows Media
File size                        : 173 MiB
Duration                         : 30mn 6s
Overall bit rate mode            : Constant
Overall bit rate                 : 802 Kbps
Maximum Overall bit rate         : 806 Kbps
Encoded date                     : UTC 2011-12-18 15:00:01.482

Video
ID                               : 2
Format                           : VC-1
Format profile                   : MP
Codec ID                         : WMV3
Codec ID/Info                    : Windows Media Video 9
Codec ID/Hint                    : WMV3
Description of the codec         : Windows Media Video 9
Duration                         : 30mn 6s
Bit rate mode                    : Constant
Bit rate                         : 700 Kbps
Width                            : 512 pixels
Height                           : 392 pixels
Display aspect ratio             : 4:3
Frame rate                       : 25.000 fps
Bit depth                        : 8 bits
Scan type                        : Progressive
Compression mode                 : Lossy
Bits/(Pixel*Frame)               : 0.140
Stream size                      : 151 MiB (87%)
Language                         : English (US)

Audio
ID                               : 1
Format                           : WMA
Format version                   : Version 2
Codec ID                         : 161
Codec ID/Info                    : Windows Media Audio
Description of the codec         : Windows Media Audio 9.1 -  96 kbps, 44 kHz, stereo (A/V) 1-pass CBR
Duration                         : 30mn 6s
Bit rate mode                    : Constant
Bit rate                         : 96.0 Kbps
Channel(s)                       : 2 channels
Sampling rate                    : 44.1 KHz
Bit depth                        : 16 bits
Stream size                      : 20.7 MiB (12%)
Language                         : English (US)


____________
172 MB

Share this topic on FacebookShare this topic on GoogleShare this topic on MySpaceShare this topic on TwitterShare this topic on Yahoo



If you like any post, then say thanks to the uploader by posting in his topic, adding thanks and reputes to him.
Because we all want is just a little appreciation from you.

Tags:
 

Related Topics

  Subject / Started by Replies Last post
0 Replies
1291 Views
Last post December 21, 2011, 11:14:58 PM
by Admin ♥♫
0 Replies
1420 Views
Last post January 25, 2012, 01:55:53 AM
by Symbi
0 Replies
999 Views
Last post August 11, 2013, 02:40:09 PM
by Iииσ¢єит Ðєνil
0 Replies
735 Views
Last post January 12, 2015, 08:46:35 AM
by тнє ωαll 81317
1 Replies
2751 Views
Last post March 28, 2017, 02:02:32 PM
by shahidimran




Back to top