+ ShareSpark.net »  :::: Bollywood Zone » Bollywood Movies (Original Rips) » TeamSSX Bollywood Releases
|- Jai Ho (2014) 1080p BRRip AC3 5.1 [HEM] (5.93 GiB)


Jai Ho (2014) 1080p BRRip AC3 5.1 [HEM] (5.93 GiB)

0 Members and 1 Guest are viewing this topic.

March 30, 2014, 09:09:03 PM
  • CoLoR BoMb
  • Admin
  • Legend Member
  • ****
  • Topic Author
  • Thank You: 1474
  • Reputation: 996
  • Activity:
    0.2%
  • Country: cx
  • Posts: 8523
  • Topics: 2008
  • Join Date: Jul 2013
  • Oh! nO
  • Expertises:
  • Ebooks And Students Zone
  • English Album / SoundTrack / OST / Mp3 Songs
  • SMS/Jokes/Poems Zone
Torrable - One stop for all your download & upload needs. It's smart, easy and free.
Jai Ho (2014) 1080p BRRip AC3 5.1 [HEM]







General
Unique ID : 233619618551079454907090829786891478990 (0xAFC1807C480E923BA04AAB4924BCE7CE)
Complete name : D:\h\Jai Ho (2014) 1080p BRRip AC3 5.1 [HEM]\Jai Ho (2014) 1080p BRRip AC3 5.1 [HEM].mkv
Format : Matroska
Format version : Version 4 / Version 2
File size : 5.93 GiB
Duration : 2h 20mn
Overall bit rate : 6 020 Kbps
Movie name : Jai Ho (2014) 1080p BRRip AC3 5.1 [HEM]
Encoded date : UTC 2014-03-30 14:41:14
Writing application : mkvmerge v6.8.0 ('Theme for Great Cities') 64bit built on Mar 2 2014 21:34:26
Writing library : libebml v1.3.0 + libmatroska v1.4.1

Video
ID : 1
Format : AVC
Format/Info : Advanced Video Codec
Format profile : Main@L4.0
Format settings, CABAC : Yes
Format settings, ReFrames : 4 frames
Codec ID : V_MPEG4/ISO/AVC
Duration : 2h 20mn
Bit rate : 5 452 Kbps
Width : 1 920 pixels
Height : 816 pixels
Display aspect ratio : 2.35:1
Frame rate mode : Constant
Frame rate : 24.000 fps
Color space : YUV
Chroma subsampling : 4:2:0
Bit depth : 8 bits
Scan type : Progressive
Bits/(Pixel*Frame) : 0.145
Stream size : 5.37 GiB (91%)
Title : Jai Ho (2014) 1080p BRRip AC3 5.1 [HEM] @ 5476 Kbps
Language : Hindi
Default : Yes
Forced : No
Color primaries : BT.709
Transfer characteristics : BT.709
Matrix coefficients : BT.709

Audio
ID : 2
Format : AC-3
Format/Info : Audio Coding 3
Mode extension : CM (complete main)
Format settings, Endianness : Big
Codec ID : A_AC3
Duration : 2h 20mn
Bit rate mode : Constant
Bit rate : 448 Kbps
Channel(s) : 6 channels
Channel positions : Front: L C R, Side: L R, LFE
Sampling rate : 48.0 KHz
Bit depth : 16 bits
Compression mode : Lossy
Stream size : 452 MiB (7%)
Title : HEM AC3 5.1 @ 448 Kbps
Language : Hindi
Default : Yes
Forced : No

Text #1
ID : 3
Format : PGS
Muxing mode : zlib
Codec ID : S_HDMV/PGS
Codec ID/Info : The same subtitle format used on BDs/HD-DVDs
Title : ORI BD English Sub - HEM
Language : English
Default : No
Forced : No

Text #2
ID : 4
Format : PGS
Muxing mode : zlib
Codec ID : S_HDMV/PGS
Codec ID/Info : The same subtitle format used on BDs/HD-DVDs
Title : ORI BD English Sub - HEM
Language : Arabic
Default : No
Forced : No



















For Best Resumable Download Use Mega Downloader

If you get Error in Middle while Downloading then Right Click and say Reset. It will Continue downloading from there Only.



2 GiB Splitted Links


IF YOU LIKE MY POST HIT ON THANK YOU
AND
ADD POSITIVE () REPUTE

Share this topic on FacebookShare this topic on GoogleShare this topic on MySpaceShare this topic on TwitterShare this topic on Yahoo





March 30, 2014, 09:19:30 PM
Reply #1
  • Junior Mod (Inactive)
  • Elite Forces
  • ***
  • Thank You: 563
  • Reputation: 206
  • Activity:
    3.2%
  • Country: in
  • Posts: 1238
  • Topics: 923
  • Join Date: Dec 2013
  • ShareSpark Member

March 30, 2014, 09:43:12 PM
Reply #2
  • Admin
  • Legend Member
  • ****
  • Thank You: 1084
  • Reputation: 1231
  • Activity:
    1.4%
  • Country: pk
  • Posts: 2936
  • Topics: 1321
  • Join Date: Jul 2013
  • Khuwaja Market Tando Allahyar


 + Rep Added ...

 Awesome Work Hemkumar Brother ...

 Keep It Up ....  :myfriend:  :myfriend:

March 30, 2014, 09:59:33 PM
Reply #3
  • CoLoR BoMb
  • Admin
  • Legend Member
  • ****
  • Topic Author
  • Thank You: 1474
  • Reputation: 996
  • Activity:
    0.2%
  • Country: cx
  • Posts: 8523
  • Topics: 2008
  • Join Date: Jul 2013
  • Oh! nO
  • Expertises:
  • Ebooks And Students Zone
  • English Album / SoundTrack / OST / Mp3 Songs
  • SMS/Jokes/Poems Zone


March 30, 2014, 10:16:08 PM
Reply #4
  • Elite Member
  • ***
  • Thank You: 27
  • Reputation: 28
  • Activity:
    0%
  • Country: in
  • Posts: 476
  • Topics: 16
  • Join Date: Feb 2013
  • ShareSpark Member

March 30, 2014, 11:45:32 PM
Reply #5
  • CoLoR BoMb
  • Admin
  • Legend Member
  • ****
  • Topic Author
  • Thank You: 1474
  • Reputation: 996
  • Activity:
    0.2%
  • Country: cx
  • Posts: 8523
  • Topics: 2008
  • Join Date: Jul 2013
  • Oh! nO
  • Expertises:
  • Ebooks And Students Zone
  • English Album / SoundTrack / OST / Mp3 Songs
  • SMS/Jokes/Poems Zone

April 09, 2014, 10:39:03 AM
Reply #6
  • Admin
  • Legend Member
  • ****
  • Thank You: 626
  • Reputation: 633
  • Activity:
    0.4%
  • Country: cn
  • Posts: 2341
  • Topics: 484
  • Join Date: Dec 2011
  • ShareSpark Member
  • Expertises:
  • Bollywood Movies
  • PC Applications
  • PC Games

Tags: 1080p BRRIP 5.1 HEM 
 

Related Topics

  Subject / Started by Replies Last post
0 Replies
632 Views
Last post February 11, 2014, 12:59:55 AM
by м ωαqαя вuтт
9 Replies
1288 Views
Last post March 17, 2014, 11:52:26 PM
by •●๋ HεʍⓀυмΔя ☣
0 Replies
168 Views
Last post March 26, 2014, 11:55:14 PM
by pendora
0 Replies
234 Views
Last post March 27, 2014, 07:27:38 PM
by Bozdar Jaan
0 Replies
195 Views
Last post March 30, 2014, 02:58:30 PM
by pendora




Back to top