+ ShareSpark.net »  :::: Bollywood Zone » Bollywood Movies (Original Rips)
|- Ishqiya 2010 720p BluRay nHD x264 (NhaNc3) - 2.2 GB


Mastercard 10% Off

Ishqiya 2010 720p BluRay nHD x264 (NhaNc3) - 2.2 GB

0 Members and 1 Guest are viewing this topic.

April 08, 2014, 03:25:27 PM
  • Elite Mod (Inactive)
  • Legend Member
  • ****
  • Topic Author
  • Thank You: 574
  • Reputation: 291
  • Activity:
    0%
  • Country: in
  • Posts: 1665
  • Topics: 577
  • Join Date: Aug 2012
  • ShareSpark Member
  • Expertises:
  • Bollywood Movies
  • Internet Tips & Tricks




Info
Code: [Select]
Media Info -
Video
ID : 1
Format : AVC
Format/Info : Advanced Video Codec
Format profile : [email protected]
Format settings, CABAC : Yes
Format settings, ReFrames : 7 frames
Muxing mode : Header stripping
Codec ID : V_MPEG4/ISO/AVC
Duration : 1h 55mn
Bit rate : 2 382 Kbps
Width : 1 280 pixels
Height : 544 pixels
Display aspect ratio : 2.35:1
Frame rate : 24.000 fps
Color space : YUV
Chroma subsampling : 4:2:0
Bit depth : 8 bits
Scan type : Progressive
Bits/(Pixel*Frame) : 0.143
Stream size : 1.88 GiB (86%)
Writing library : x264 core 110 r1820 fdcf2ae
Language : English
Default : Yes
Forced : No

Audio
ID : 2
Format : AC-3
Format/Info : Audio Coding 3
Mode extension : CM (complete main)
Muxing mode : Header stripping
Codec ID : A_AC3
Duration : 1h 55mn
Bit rate mode : Constant
Bit rate : 320 Kbps
Channel(s) : 6 channels
Channel positions : Front: L C R, Side: L R, LFE
Sampling rate : 48.0 KHz
Bit depth : 16 bits
Compression mode : Lossy
Stream size : 265 MiB (12%)
Language : Hindi
Default : Yes
Forced : No

Ripper : NhaNc3

ScreenShots








Download Links
Code: [Select]
http://uploadsat.com/gpva2v0fd1bn.html

http://hugefiles.net/z5qy8i1dzita/Ishqiya.2010.720p.BluRay.nHD.x264-NhaNc3.mkv

http://uptobox.com/yr46636cdpn8

http://epicshare.net/tkuqddgpo2pi/Ishqiya.2010.720p.BluRay.nHD.x264-NhaNc3.mkv.html

http://davvas.com/pn5imvm8bwlo

http://180upload.com/75k9d9pgwvqj

http://BillionUploads.com/zouyk0x4sfot

http://lemuploads.com/tkuqddgpo2pi



I have Finished My Work.Now Its Your Turn To Say Thanks And Add Reputation.

Share this topic on FacebookShare this topic on GoogleShare this topic on MySpaceShare this topic on TwitterShare this topic on Yahoo



Tech Reviewer at : -


April 08, 2014, 05:58:51 PM
Reply #1
  • Add +rep
  • Hero Member
  • ***
  • Thank You: 27
  • Reputation: 12
  • Activity:
    0%
  • Country: in
  • Posts: 358
  • Topics: 80
  • Join Date: May 2013
  • ℓɨ˅€ ţ๏ďą¥, ƒ๏я ţ๏ʍ๏яя๏ώ ɨţ ώɨℓℓ ąℓℓ β€ hɨ$ţ๏я¥.
:django:Add +Rep and Thanks if u like my post or else i will Shoot u :django:

 

Related Topics

  Subject / Started by Replies Last post
5 Replies
1754 Views
Last post February 11, 2014, 02:46:28 PM
by -Tushar-
5 Replies
1756 Views
Last post March 27, 2015, 06:55:30 PM
by Godzilla
2 Replies
1286 Views
Last post September 01, 2015, 05:11:22 PM
by -Ð@Rk.ÐèVi£-
5 Replies
1363 Views
Last post October 05, 2013, 02:08:44 PM
by hunterz007
0 Replies
606 Views
Last post March 28, 2015, 11:19:30 AM
by ddr_mizu




Back to top