+ ShareSpark.net »  :::: Hollywood Zone » Hollywood Movies (Original Rips)
|- The.Railway.Man.2013.BRRip.x264.AC3-MiLLENiUM


Amazon Fashion

The.Railway.Man.2013.BRRip.x264.AC3-MiLLENiUM

0 Members and 1 Guest are viewing this topic.

April 20, 2014, 04:29:40 PM
  • *****************
  • Head Admin
  • Legend Member
  • *****
  • Topic Author
  • Thank You: 7055
  • Reputation: 3113
  • Activity:
    10.2%
  • Country: in
  • Posts: 19285
  • Topics: 11150
  • Join Date: Mar 2012
  • The Time Is Now......


The Railway Man 2013 BRRip x264 AC3-MiLLENiUM

General

Source...............: 720p BluRay DTS X264-AMIABLE [THANKS]
IMDb Information.... :

Sample Included......: yes

General
Complete name : The Railway Man 2013 BRRip x264 AC3-MiLLENiUM.mkv
Format : Matroska
Format version : Version 2
File size : 1.02 GiB
Duration : 1h 56mn
Overall bit rate mode : Variable
Overall bit rate : 1 256 Kbps
Encoded date : UTC 2014-04-19 13:52:26
Writing application : mkvmerge v6.8.0 ('Theme for Great Cities') 32bit built on Mar 2 2014 21:27:07
Writing library : libebml v1.3.0 + libmatroska v1.4.1

Video
ID : 1
Format : AVC
Format/Info : Advanced Video Codec
Format profile : [email protected]
Format settings, CABAC : Yes
Format settings, ReFrames : 3 frames
Codec ID : V_MPEG4/ISO/AVC
Duration : 1h 56mn
Bit rate mode : Variable
Bit rate : 783 Kbps
Maximum bit rate : 40.0 Mbps
Width : 720 pixels
Height : 304 pixels
Display aspect ratio : 2.35:1
Frame rate mode : Constant
Frame rate : 23.976 fps
Color space : YUV
Chroma subsampling : 4:2:0
Bit depth : 8 bits
Scan type : Progressive
Bits/(Pixel*Frame) : 0.149
Stream size : 652 MiB (62%)
Writing library : x264 core 142 r2409 d6b4e63

Audio
ID : 2
Format : AC-3
Format/Info : Audio Coding 3
Mode extension : CM (complete main)
Format settings, Endianness : Big
Codec ID : A_AC3
Duration : 1h 56mn
Bit rate mode : Constant
Bit rate : 448 Kbps
Channel(s) : 6 channels
Channel positions : Front: L C R, Side: L R, LFE
Sampling rate : 48.0 KHz
Bit depth : 16 bits
Compression mode : Lossy
Stream size : 373 MiB (36%)
Language : English
Default : Yes
Forced : No

Plot

A former British Army officer, who was tormented as a prisoner of war at a Japanese labor camp during World War II, discovers that the man responsible for much of his treatment is still alive and sets out to confront him.

Screenshots










Share this topic on FacebookShare this topic on GoogleShare this topic on MySpaceShare this topic on TwitterShare this topic on Yahoo




Tags:
 

Related Topics

  Subject / Started by Replies Last post
1 Replies
829 Views
Last post December 09, 2013, 10:38:11 AM
by sαgαя15sнαн
0 Replies
458 Views
Last post April 08, 2014, 05:46:25 AM
by pendora
0 Replies
410 Views
Last post April 09, 2014, 04:19:35 AM
by pendora
0 Replies
441 Views
Last post April 20, 2014, 03:58:08 PM
by -Ð@Rk.ÐèVi£-
0 Replies
502 Views
Last post April 29, 2014, 09:26:01 PM
by Iмsтαrk




Back to top