+ ShareSpark.net »  :::: Bollywood Zone » Indian TV Shows
|- 18th Annual Colors Screen Awards Red Carpet-22nd January HQ XviD [234 MB]


100% DTH Offer

18th Annual Colors Screen Awards Red Carpet-22nd January HQ XviD [234 MB]

0 Members and 1 Guest are viewing this topic.

January 25, 2012, 01:55:53 AM
  • Hot Member
  • ***
  • Topic Author
  • Thank You: 27
  • Reputation: 106
  • Activity:
    0%
  • Posts: 591
  • Topics: 345
  • Join Date: Dec 2010
18th Annual Colors Screen Awards Red Carpet-22nd January HQ XviD




==================================
General
Format : AVI
Format/Info : Audio Video Interleave
Format profile : OpenDML
Format settings : rec
File size : 234 MiB
Duration : 20mn 4s
Overall bit rate : 1 631 Kbps
Writing application : AVI-Mux GUI 1.17.8.3, Feb 16 201019:42:50

Video
ID : 0
Format : MPEG-4 Visual
Format profile : Advanced [email protected]
Format settings, BVOP : 2
Format settings, QPel : No
Format settings, GMC : No warppoints
Format settings, Matrix : Default (H.263)
Codec ID : XVID
Codec ID/Hint : XviD
Duration : 20mn 4s
Bit rate : 1 498 Kbps
Width : 512 pixels
Height : 384 pixels
Display aspect ratio : 4:3
Frame rate : 29.970 fps
Color space : YUV
Chroma subsampling : 4:2:0
Bit depth : 8 bits
Scan type : Progressive
Compression mode : Lossy
Bits/(Pixel*Frame) : 0.254
Stream size : 215 MiB (92%)
Writing library : XviD 1.2.1 (UTC 2008-12-04)

Audio
ID : 1
Format : MPEG Audio
Format version : Version 1
Format profile : Layer 3
Mode : Joint stereo
Mode extension : MS Stereo
Codec ID : 55
Codec ID/Hint : MP3
Duration : 20mn 4s
Bit rate mode : Constant
Bit rate : 128 Kbps
Channel(s) : 2 channels
Sampling rate : 48.0 KHz
Compression mode : Lossy
Stream size : 18.4 MiB (8%)
Alignment : Aligned on interleaves
Interleave, duration : 537 ms (16.10 video frames)
Interleave, preload duration : 216 ms
Writing library : LAME3.98r
Encoding settings : -m j -V 4 -q 2 -lowpass 17 -b 128


____________
234 MB

Share this topic on FacebookShare this topic on GoogleShare this topic on MySpaceShare this topic on TwitterShare this topic on Yahoo




Tags:
 

Related Topics

  Subject / Started by Replies Last post
0 Replies
1199 Views
Last post January 24, 2012, 12:22:54 AM
by Admin ♥♫
0 Replies
1211 Views
Last post January 25, 2012, 11:32:35 AM
by Maverick.Dude™
0 Replies
1329 Views
Last post January 26, 2012, 12:14:55 AM
by Symbi
0 Replies
763 Views
Last post January 11, 2016, 07:54:13 AM
by abcxyz1
0 Replies
709 Views
Last post January 18, 2016, 06:15:56 AM
by abcxyz1




Back to top