+ ShareSpark.net »  :::: Hollywood Zone » Hollywood Movies (Original Rips) » Small Size Hollywood Movies
|- Decoding.Annie.Parker.2013.WEBRip.480p.x264.AAC-VYTO [P2PDL] (350 MB)


Samsung Galaxy 8

Decoding.Annie.Parker.2013.WEBRip.480p.x264.AAC-VYTO [P2PDL] (350 MB)

0 Members and 1 Guest are viewing this topic.

May 08, 2014, 11:01:26 AM
  • Admin
  • Legend Member
  • ****
  • Topic Author
  • Thank You: 2701
  • Reputation: 840
  • Activity:
    0%
  • Country: in
  • Posts: 4534
  • Topics: 3161
  • Join Date: Nov 2011
  • ShareSpark Member
  • Expertises:
  • Hollywood Movies
  • Dubbed Movies
  • English PC Videos

 :title:

Decoding.Annie.Parker.2013.WEBRip.480p.x264.AAC-VYTO [P2PDL] (350 MB)




 :ss:












 :imdb:


Ratings: 7.0/10 from 508 users
Genre : Drama
Director: Steven Bernstein
Writers: Adam Bernstein, Steven Bernstein, 1 more credit »
Stars: Aaron Paul, Alice Eve, Maggie Grace


 :plot:

Love, science, sex, infidelity, disease and comedy, the wild, mostly true story of the irrepressible Annie Parker and the almost discovery of a cure for cancer.


 :info:

Format                         : MPEG-4
File size                      : 351 MiB
Duration                       : 1h 39mn
Overall bit rate               : 493 Kbps

Video
Format                         : AVC
Bit rate                       : 450 Kbps
Width                          : 720 pixels
Height                         : 304 pixels
Display aspect ratio           : 2.35:1
Frame rate mode                : Constant
Frame rate                     : 23.976 fps
Bit depth                      : 8 bits
Stream size                    : 321 MiB (91%)
Writing library                : x264 core 142 r2431 ac76440

Audio
Format                         : AAC
Bit rate mode                  : Variable
Bit rate                       : 40.0 Kbps
Channel count                  : 2 channels
Channel positions              : Front: L R
Sampling rate                  : 48.0 KHz
Stream size                    : 28.5 MiB (8%)
Language                       : English

Subtitle                       : Yes (English)


 :download:

SAMPLE:



FULL MOVIE:












FOR MORE AMAZING AND QUICKER POSTS HIT THANKS AND ADD REPUTATION +

Share this topic on FacebookShare this topic on GoogleShare this topic on MySpaceShare this topic on TwitterShare this topic on Yahoo

« Last Edit: May 08, 2014, 11:07:28 AM by °•» ɲą˅ƹƹɲ «•° »



Tags:
 

Related Topics





Back to top