+ ShareSpark.net »  :::: Hollywood Zone » Hollywood Movies (Original Rips) » Small Size Hollywood Movies
|- Son Of God (2014) WEBRip 480p x264 AAC - VYTO [P2PDL] ( 500 MB )


Electroncs Sale

Son Of God (2014) WEBRip 480p x264 AAC - VYTO [P2PDL] ( 500 MB )

0 Members and 1 Guest are viewing this topic.

May 10, 2014, 10:54:38 AM
  • Admin
  • Legend Member
  • ****
  • Topic Author
  • Thank You: 2702
  • Reputation: 840
  • Activity:
    0%
  • Country: in
  • Posts: 4534
  • Topics: 3161
  • Join Date: Nov 2011
  • ShareSpark Member
  • Expertises:
  • Hollywood Movies
  • Dubbed Movies
  • English PC Videos

 :title:

Son Of God (2014) WEBRip 480p x264 AAC - VYTO [P2PDL] ( 500 MB )




 :ss:






 





 :imdb:

Genre: Drama

 Rating: 5.5/10 - ‎8,401 votes

 :info:

General
Format                         : MPEG-4
File size                      : 502 MiB
Duration                       : 2h 18mn
Overall bit rate               : 508 Kbps

Video
Format                         : AVC
Bit rate                       : 465 Kbps
Width                          : 720 pixels
Height                         : 304 pixels
Display aspect ratio           : 2.35:1
Frame rate mode                : Constant
Frame rate                     : 23.976 fps
Bit depth                      : 8 bits
Stream size                    : 459 MiB (91%)

Audio
Format                         : AAC
Bit rate mode                  : Variable
Bit rate                       : 40.0 Kbps
Channel(s)                     : 2 channels
Channel positions              : Front: L R
Sampling rate                  : 48.0 KHz
Stream size                    : 39.5 MiB (8%)
Language                       : English

Subtitle                       : Yes (English)


 :download:

SAMPLE :



FULL MOVIE :












FOR MORE AMAZING AND QUICKER POSTS HIT THANKS AND ADD REPUTATION +

Share this topic on FacebookShare this topic on GoogleShare this topic on MySpaceShare this topic on TwitterShare this topic on Yahoo

« Last Edit: May 10, 2014, 11:12:34 AM by °•» ɲą˅ƹƹɲ «•° »


Thanks given by:


Tags:
 

Related Topics





Back to top