+ ShareSpark.net »  :::: Hollywood Zone » Hollywood Movies (Pre Releases)
|- Devils Knot 2013 HDRIP XVID AC3 ACAB


Amazon Fashion

Devils Knot 2013 HDRIP XVID AC3 ACAB

0 Members and 1 Guest are viewing this topic.

May 13, 2014, 07:17:38 PM
  • Admin
  • Legend Member
  • ****
  • Topic Author
  • Thank You: 3421
  • Reputation: 1214
  • Activity:
    3.2%
  • Posts: 5928
  • Topics: 3331
  • Join Date: Apr 2012
  • No Tears For The Dead
  • Expertises:
  • All Rounder In Each Field
Devils Knot 2013 HDRIP XVID AC3 ACAB




Title: Devil's Knot (2013)
IMDB Rating: 5.9/10
Genres: Biography , Crime , Drama , Thriller
Actors: Dane DeHaan , Reese Witherspoon , Mireille Enos , Colin Firth , Kevin Durand , Elias Koteas , Stephen Moyer , Amy Ryan , Martin Henderson , Alessandro Nivola , Bruce Greenwood , Collette Wolfe , Kristoffer Polaha , Matt Letscher , Michael Gladis
Runtime: 114
Year: 2013
Plot:
The savage murders of three young children sparks a controversial trial of three teenagers accused of killing the kids as part of a satanic ritual.

Format : AVI
Format/Info : Audio Video Interleave
File size : 1.33 GiB
Duration : 1h 54mn
Overall bit rate : 1 671 Kbps

Video
ID : 0
Format : MPEG-4 Visual
Format profile : Advanced [email protected]
Format settings, BVOP : 2
Format settings, QPel : No
Format settings, GMC : No warppoints
Format settings, Matrix : Default (H.263)
Muxing mode : Packed bitstream
Codec ID : XVID
Codec ID/Hint : XviD
Duration : 1h 54mn
Bit rate : 1 471 Kbps
Width : 720 pixels
Height : 400 pixels
Display aspect ratio : 16:9
Frame rate : 23.976 fps
Color space : YUV
Chroma subsampling : 4:2:0
Bit depth : 8 bits
Scan type : Progressive
Compression mode : Lossy
Bits/(Pixel*Frame) : 0.213
Stream size : 1.17 GiB (88%)
Writing library : XviD 1.2.1 (UTC 2008-12-04)

Audio
ID : 1
Format : AC-3
Format/Info : Audio Coding 3
Mode extension : CM (complete main)
Format settings, Endianness : Big
Codec ID : 2000
Duration : 1h 54mn
Bit rate mode : Constant
Bit rate : 192 Kbps
Channel(s) : 6 channels
Channel positions : Front: L C R, Side: L R, LFE
Sampling rate : 48.0 KHz
Bit depth : 16 bits
Compression mode : Lossy
Stream size : 157 MiB (11%)
Alignment : Aligned on interleaves
Interleave, duration : 64 ms (1.53 video frames)
Interleave, preload duration : 192 ms
Title : Devils.Knot.2013.English






 :download:





Share this topic on FacebookShare this topic on GoogleShare this topic on MySpaceShare this topic on TwitterShare this topic on Yahoo



Thanks given by:


May 14, 2014, 10:11:40 AM
Reply #1
  • LaDLa PriNce
  • Addic7ed (Inactive)
  • Legend Member
  • ****
  • Thank You: 213
  • Reputation: 91
  • Activity:
    1.2%
  • Country: pk
  • Posts: 1777
  • Topics: 161
  • Join Date: Sep 2012
  • I <3 ShareSpark

 

Related Topics

  Subject / Started by Replies Last post
0 Replies
463 Views
Last post May 26, 2014, 12:33:18 PM
by Bozdar Jaan
0 Replies
551 Views
Last post May 26, 2014, 04:26:18 PM
by -Ð@Rk.ÐèVi£-
0 Replies
573 Views
Last post May 26, 2014, 04:29:42 PM
by -Ð@Rk.ÐèVi£-
2 Replies
494 Views
Last post August 23, 2014, 08:00:32 AM
by Hello india
0 Replies
282 Views
Last post July 07, 2015, 07:46:43 PM
by ♥ Mann ♥




Back to top