+ ShareSpark.net »  :::: Hollywood Zone » Hollywood Movies (Original Rips) » Small Size Hollywood Movies
|- Mindscape (2013) Brrip 720p x264 280mb ripped by kk


Mindscape (2013) Brrip 720p x264 280mb ripped by kk

0 Members and 1 Guest are viewing this topic.

May 18, 2014, 09:34:23 PM
  • Newbie
  • **
  • Topic Author
  • Thank You: 0
  • Reputation: 0
  • Activity:
    0%
  • Posts: 2
  • Topics: 1
  • Join Date: Sep 2012
  • ShareSpark Member
Mindscape (2013) Brrip 720p x264 280mb ripped by kk





A man with the ability to enter peoples’ memories takes on the case of a brilliant, troubled sixteen-year-old girl to determine whether she is a sociopath or a victim of trauma .

Awards : 3 Nominations

Details : IMDB 6.4/10 - ‎1,252 votes

Release Date : 6 June 2014 (USA)

Original Title : Mindscape

Genre : Drama , Thriller

Director : Jorge Dorado

Writers : Guy Holmes, Martha Holmes (story)

Stars : Taissa Farmiga, Noah Taylor, Mark Strong


MediaInfo

General
Format                                   : MPEG-4
Format profile                           : Base Media
Codec ID                                 : isom
File size                                : 283 MiB
Duration                                 : 1h 38mn
Overall bit rate                         : 400 Kbps
Movie name                               : Mindscape 2014 720p BluRay x264 Ganool com
Writing application                      : Lavf54.29.104

Video
ID                                       : 1
Format                                   : AVC
Format/Info                              : Advanced Video Codec
Format profile                           : [email protected]
Format settings, CABAC                   : Yes
Format settings, ReFrames                : 4 frames
Codec ID                                 : avc1
Codec ID/Info                            : Advanced Video Coding
Duration                                 : 1h 38mn
Bit rate                                 : 368 Kbps
Width                                    : 1 280 pixels
Height                                   : 536 pixels
Display aspect ratio                     : 2.40:1
Frame rate mode                          : Constant
Frame rate                               : 23.976 fps
Color space                              : YUV
Chroma subsampling                       : 4:2:0
Bit depth                                : 8 bits
Scan type                                : Progressive
Bits/(Pixel*Frame)                       : 0.022
Stream size                              : 258 MiB (91%)
Writing library                          : x264 core 136


Audio
ID                                       : 2
Format                                   : AAC
Format/Info                              : Advanced Audio Codec
Format profile                           : HE-AACv2 / HE-AAC / LC
Codec ID                                 : 40
Duration                                 : 1h 38mn
Bit rate mode                            : Constant
Bit rate                                 : 30.8 Kbps
Channel(s)                               : 2 channels / 1 channel / 1 channel
Channel positions                        : Front: L R / Front: C / Front: C
Sampling rate                            : 44.1 KHz / 44.1 KHz / 22.05 KHz
Compression mode                         : Lossy
Stream size                              : 21.8 MiB (8%)




Download Link(s):-
Firedrive   

Share this topic on FacebookShare this topic on GoogleShare this topic on MySpaceShare this topic on TwitterShare this topic on Yahoo

« Last Edit: May 19, 2014, 08:13:44 PM by praveenkk »



Tags:
 

Related Topics

  Subject / Started by Replies Last post
5 Replies
1271 Views
Last post October 18, 2013, 05:33:24 PM
by kazimtaslim
0 Replies
741 Views
Last post January 26, 2014, 09:42:14 PM
by Iмsтαrk
0 Replies
785 Views
Last post May 17, 2014, 11:48:44 AM
by s¡lєит_αssαss¡и
1 Replies
746 Views
Last post May 17, 2014, 04:47:57 PM
by TinyMoviez
0 Replies
721 Views
Last post December 14, 2015, 10:00:19 AM
by ddr©catchme




Back to top