+ ShareSpark.net »  :::: Dubbed Zone (Dubbed English in Hindi) » English Movies Dubbed in Hindi » TeamSSX Dubbed Releases
|- Men In Black 3 (2012) BDRip x264 [Hindi] [Mobile] [HQ] [TeaM SSX]


TV and Appliances

Men In Black 3 (2012) BDRip x264 [Hindi] [Mobile] [HQ] [TeaM SSX]

0 Members and 1 Guest are viewing this topic.

June 11, 2014, 04:43:38 PM
  • Admin
  • Legend Member
  • ****
  • Topic Author
  • Thank You: 654
  • Reputation: 641
  • Activity:
    3.2%
  • Country: cn
  • Posts: 2393
  • Topics: 521
  • Join Date: Dec 2011
  • ShareSpark Member
  • Expertises:
  • Bollywood Movies
  • PC Applications
  • PC Games
Men In Black 3 (2012) BDRip x264 [Hindi] [Mobile] [HQ] [TeaM SSX]



:info:

Code: [Select]
:info:
General
Complete name                            : MIB3.mp4
Format                                   : MPEG-4
File size                                : 203 MiB
Duration                                 : 1h 45mn
Overall bit rate                         : 268 Kbps

Video
ID                                       : 1
Duration                                 : 1h 45mn
Bit rate                                 : 200 Kbps
Width                                    : 480 pixels
Height                                   : 256 pixels
Frame rate                               : 23.976 fps
Stream size                              : 151 MiB (75%)
Writing library                          : x264 core 130 r2273 b3065e6

Audio
ID                                       : 2
Format                                   : AAC
Duration                                 : 1h 45mn
Bit rate                                 : 64.1 Kbps
Channel(s)                               : 2 channels
Sampling rate                            : 48.0 KHz
Stream size                              : 48.5 MiB (24%)
Language                                 : Hindi


:ss:









:download:





















Share this topic on FacebookShare this topic on GoogleShare this topic on MySpaceShare this topic on TwitterShare this topic on Yahoo



Thanks given by:


 

Related Topics





Back to top