+ ShareSpark.net »  :::: Dubbed Zone (Dubbed English in Hindi) » English Movies Dubbed in Hindi » Animation Movies
|- Doraemon Ther Movie Jadoi Tapu {2013} 720p hindi by Hell paradise


Doraemon Ther Movie Jadoi Tapu {2013} 720p hindi by Hell paradise

0 Members and 1 Guest are viewing this topic.

July 04, 2014, 01:56:53 PM
  • •?((¯°·._.• [email protected]ţɨɲ[email protected]ţɨɲ •._.·°¯))؟•
  • Elite Mod (Inactive)
  • Legend Member
  • ****
  • Topic Author
  • Thank You: 1601
  • Reputation: 783
  • Activity:
    0%
  • Posts: 2758
  • Topics: 1761
  • Join Date: Feb 2014
  • •]••´º´•» gσσ∂ вує «•´º´••[•



Doraemon Ther Movie Jadoi Tapu {2013} 720p hindi by Hell paradise





Special thnx for movie DD






General

Format : MPEG-4
Format profile : Base Media
Codec ID : isom
File size : 773 MiB
Duration : 1h 33mn
Overall bit rate : 1 160 Kbps
Encoded date : UTC 2014-07-01 07:20:25
Tagged date : UTC 2014-07-01 07:20:25
Writing application : vlc 2.1.3 stream output

Video

Format : AVC
Format/Info : Advanced Video Codec
Format profile : [email protected]
Format settings, CABAC : Yes
Format settings, ReFrames : 4 frames
Codec ID : avc1
Codec ID/Info : Advanced Video Coding
Duration : 1h 33mn
Source duration : 1h 33mn
Bit rate : 1 027 Kbps
Width : 1 280 pixels
Height : 720 pixels
Display aspect ratio : 16:9
Frame rate mode : Variable
Frame rate : 15.000 fps
Minimum frame rate : 14.925 fps
Maximum frame rate : 15.152 fps
Color space : YUV
Chroma subsampling : 4:2:0
Bit depth : 8 bits
Scan type : Progressive
Bits/(Pixel*Frame) : 0.074
Stream size : 685 MiB (89%)
Source stream size : 685 MiB (89%)
Language : Hindi
Encoded date : UTC 2014-07-01 07:20:25
Tagged date : UTC 2014-07-01 07:20:25
mdhd_Duration : 1293766

Audio

Format : MPEG Audio
Format version : Version 1
Format profile : Layer 2
Codec ID : 6B
Duration : 1h 33mn
Source duration : 1h 33mn
Bit rate mode : Constant
Bit rate : 128 Kbps
Maximum bit rate : 132 Kbps
Channel(s) : 2 channels
Sampling rate : 44.1 KHz
Compression mode : Lossy
Stream size : 85.1 MiB (11%)
Source stream size : 85.1 MiB (11%)
Language : Hindi
Encoded date : UTC 2014-07-01 07:20:25
Tagged date : UTC 2014-07-01 07:20:25
mdhd_Duration : 5588507












[email protected]

N/A

Full MOV3 Link!!!











Share this topic on FacebookShare this topic on GoogleShare this topic on MySpaceShare this topic on TwitterShare this topic on Yahoo



Thanks given by:


July 04, 2014, 02:24:39 PM
Reply #1
  • Love You Forever
  • Legend Member
  • ****
  • Thank You: 283
  • Reputation: 155
  • Activity:
    0%
  • Country: us
  • Posts: 2073
  • Topics: 850
  • Join Date: Jun 2013
  • Only Love,,....!!!!!!

July 07, 2014, 02:25:19 AM
Reply #2
  • Royal Member
  • ****
  • Thank You: 1
  • Reputation: 2
  • Activity:
    2.2%
  • Posts: 880
  • Topics: 2
  • Join Date: Apr 2012
  • ShareSpark Member

Tags: hell paradise 
 

Related Topics





Back to top