:::: Hollywood Zone > Anime & Cartoon Zone

Naruto Shippuden Season 6 English Dubbed 480p Download

(1/1)

~AтσмPяσ~:
Naruto Shippuden Season 6 English Dubbed 480p Download


The thirty-one episodes of the sixth season of the anime series Naruto: Shippuden are directed by Hayato Date and produced by Studio Pierrot and TV Tokyo. They are based on Part II of the Naruto manga series by Masashi Kishimoto. The sixth season began airing on June 11, 2009 on TV Tokyo in Japan, and finished on January 14, 2010. The English dubbed version of this season began on January 12, 2013 and ended in the same year, February 4 on Neon Alley.  They are centered around Sasuke Uchiha's quest of revenge against his older brother Itachi for their clan's destruction. It also features two arcs focusing on Kakashi Hatake and Jiraiya's backstories. The season is referred to by its DVDs as the chapter of Master's Prophecy and Vengeance (師の予言と復讐 Shi no Yogen to Fukushū?) released by Aniplex.[

General

Format                                   : Matroska
Format version                           : Version 4 / Version 2
File size                                : 43.2 MiB
Duration                                 : 22mn 45s
Overall bit rate mode                    : Variable
Overall bit rate                         : 266 Kbps

Video
ID                                       : 1
Format                                   : AVC
Format/Info                              : Advanced Video Codec
Format profile                           : [email protected]
Format settings, CABAC                   : Yes
Format settings, ReFrames                : 16 frames
Codec ID                                 : V_MPEG4/ISO/AVC
Duration                                 : 22mn 45s
Bit rate                                 : 212 Kbps
Width                                    : 848 pixels
Height                                   : 480 pixels
Display aspect ratio                     : 16:9
Frame rate mode                          : Constant
Frame rate                               : 29.970 fps
Color space                              : YUV
Chroma subsampling                       : 4:2:0
Bit depth                                : 8 bits
Scan type                                : Progressive
Bits/(Pixel*Frame)                       : 0.017
Stream size                              : 34.5 MiB (80%)
Language                                 : English
Default                                  : Yes
Forced                                   : No

Audio
ID                                       : 2
Format                                   : Vorbis
Format settings, Floor                   : 1
Codec ID                                 : A_VORBIS
Duration                                 : 22mn 45s
Bit rate mode                            : Variable
Bit rate                                 : 48.0 Kbps
Channel(s)                               : 1 channel
Sampling rate                            : 48.0 KHz
Compression mode                         : Lossy
Stream size                              : 7.81 MiB (18%)
Language                                 : English
Default                                  : Yes
Forced                                   : No




Size : 1.2 Gb

--- Quote ---


--- End quote ---

Shashank11701:
hey all links dead from seasons 1 to all plz reupload from season 6 plz man

Navigation

[0] Message Index

Go to full version