+ ShareSpark.net »  :::: Bollywood Zone » Bollywood Movies (Pre Releases)
|- KICK (2014) [2CD] DVDSCR Rip Xvid AC3 TeamTNT Exclusive ~HSR

Mobile Recharge Offer 20% Off

KICK (2014) [2CD] DVDSCR Rip Xvid AC3 TeamTNT Exclusive ~HSR

0 Members and 1 Guest are viewing this topic.

July 26, 2014, 12:35:20 PM
  • Premium Uploader
  • Conqueror (Inactive)
  • Special Member
  • *****
  • Topic Author
  • Thank You: 176
  • Reputation: 88
  • Activity:
    0%
  • Country: in
  • Posts: 655
  • Topics: 184
  • Join Date: Sep 2013
  • ShareSpark Member







General
Complete name : D:\KICK.avi
Format : AVI
Format/Info : Audio Video Interleave
File size : 1.36 GiB
Duration : 2h 25mn
Overall bit rate : 1 337 Kbps

Video
ID : 0
Format : MPEG-4 Visual
Format profile : Advanced [email protected]
Format settings, BVOP : 2
Format settings, QPel : No
Format settings, GMC : No warppoints
Format settings, Matrix : Default (H.263)
Codec ID : XVID
Codec ID/Hint : XviD
Duration : 2h 25mn
Bit rate : 1 135 Kbps
Width : 720 pixels
Height : 304 pixels
Display aspect ratio : 2.35:1
Frame rate : 23.976 fps
Color space : YUV
Chroma subsampling : 4:2:0
Bit depth : 8 bits
Scan type : Progressive
Compression mode : Lossy
Bits/(Pixel*Frame) : 0.216
Stream size : 1.16 GiB (85%)
Writing library : XviD 1.2.1 (UTC 2008-12-04)

Audio
ID : 1
Format : AC-3
Format/Info : Audio Coding 3
Mode extension : CM (complete main)
Format settings, Endianness : Big
Codec ID : 2000
Duration : 2h 25mn
Source duration : 2h 25mn
Bit rate mode : Constant
Bit rate : 192 Kbps
Channel(s) : 2 channels
Channel positions : Front: L R
Sampling rate : 44.1 KHz
Bit depth : 16 bits
Compression mode : Lossy
Stream size : 200 MiB (14%)
Alignment : Aligned on interleaves
Interleave, duration : 42 ms (1.00 video frame)























Share this topic on FacebookShare this topic on GoogleShare this topic on MySpaceShare this topic on TwitterShare this topic on Yahoo



Thanks given by:


July 26, 2014, 05:15:24 PM
Reply #1
Best rip till now....'gonna download it  ;)
:rep:

July 26, 2014, 05:35:32 PM
Reply #2
  • Love You Forever
  • Legend Member
  • ****
  • Thank You: 282
  • Reputation: 155
  • Activity:
    0%
  • Country: us
  • Posts: 2073
  • Topics: 850
  • Join Date: Jun 2013
  • Only Love,,....!!!!!!
achha hua maine 1cd rip download kiya....It is true..... but I do not like the movie at all...I felt boring..so much boring

July 26, 2014, 06:25:35 PM
Reply #3
  • Premium Uploader
  • Conqueror (Inactive)
  • Special Member
  • *****
  • Topic Author
  • Thank You: 176
  • Reputation: 88
  • Activity:
    0%
  • Country: in
  • Posts: 655
  • Topics: 184
  • Join Date: Sep 2013
  • ShareSpark Member

July 26, 2014, 06:28:05 PM
Reply #4
  • Premium Uploader
  • Conqueror (Inactive)
  • Special Member
  • *****
  • Topic Author
  • Thank You: 176
  • Reputation: 88
  • Activity:
    0%
  • Country: in
  • Posts: 655
  • Topics: 184
  • Join Date: Sep 2013
  • ShareSpark Member
achha hua maine 1cd rip download kiya....It is true..... but I do not like the movie at all...I felt boring..so much boring
Apne dekh to li hai yar...mera toh mann he nhi krta sallu ki movie dekhne ka jabse "jai ho" dekhi hai.. :P

Tags: Kick 2014 DVDSCR AC3 teamtnt hsr 
 

Related Topics




Back to top